999
DXF file: T3-B_motionrange.dxf
999
Pro/ENGINEER 2018360 by Parametric Technology Corporation
  0
SECTION
  2
HEADER
  9
$ACADVER
  1
AC1021
  9
$DWGCODEPAGE
  3
ANSI_932
  9
$EXTMAX
 10
841.0
 20
594.0
 30
0.0
  9
$EXTMIN
 10
0.0
 20
0.0
 30
0.0
  9
$LIMMIN
 10
0.0
 20
0.0
  9
$LIMMAX
 10
841.0
 20
594.0
  9
$VIEWCTR
 10
420.5
 20
297.0
  9
$VIEWSIZE
 40
594.0
  9
$CLAYER
  8
0
  9
$LTSCALE
 40
46.255
  9
$CELTYPE
  6
BYLAYER
  9
$DIMSCALE
 40
1.0
  9
$DIMASZ
 40
1.5
  9
$DIMEXO
 40
1.0
  9
$DIMDLI
 40
31.958
  9
$DIMEXE
 40
1.0
  9
$DIMCEN
 40
7.569
  9
$DIMLFAC
 40
1.0
  9
$DIMBLK
  1
_OPEN
  9
$DIMALT
 70
0
  9
$DIMALTF
 40
25.4
  9
$DIMTXT
 40
3.0
  9
$DIMTOL
 70
1
  9
$DIMLIM
 70
0
  9
$DIMTFAC
 40
1.0
  9
$DIMTP
 40
0.001
  9
$DIMTM
 40
0.001
  9
$DIMGAP
 40
0.625
  9
$DIMDSEP
 70
46
  9
$AUNITS
 70
0
  9
$PDMODE
 70
3
  9
$PDSIZE
 40
5.0
  9
$HANDSEED
  5
7E8
  9
$TILEMODE
 70
1
  9
$MEASUREMENT
 70
1
  9
$INSUNITS
 70
4
  0
ENDSEC
  0
SECTION
  2
CLASSES
  0
CLASS
  1
ACDBDICTIONARYWDFLT
  2
AcDbDictionaryWithDefault
  3
AutoCAD 2000
 90
0
 91
1
280
0
281
0
  0
CLASS
  1
ACDBPLACEHOLDER
  2
AcDbPlaceHolder
  3
AutoCAD 2000
 90
0
 91
1
280
0
281
0
  0
CLASS
  1
LAYOUT
  2
AcDbLayout
  3
AutoCAD 2000
 90
0
 91
0
280
0
281
0
  0
ENDSEC
  0
SECTION
  2
TABLES
  0
TABLE
  2
VPORT
  5
8
100
AcDbSymbolTable
 70
2
  0
VPORT
  5
1F4
100
AcDbSymbolTableRecord
100
AcDbViewportTableRecord
  2
*ACTIVE
 70
0
 10
0.0
 20
0.0
 11
1.0
 21
1.0
 12
420.5
 22
297.0
 13
0.0
 23
0.0
 14
1.0
 24
1.0
 15
0.0
 25
0.0
 16
0.0
 26
0.0
 36
1.0
 17
0.0
 27
0.0
 37
0.0
 40
594.0
 41
1.4158249158
 42
50.0
 43
0.0
 44
0.0
 50
0.0
 51
0.0
 71
0
 72
100
 73
1
 74
1
 75
0
 76
0
 77
0
 78
0
  0
ENDTAB
  0
TABLE
  2
LTYPE
  5
5
100
AcDbSymbolTable
 70
6
  0
LTYPE
  5
14
100
AcDbSymbolTableRecord
100
AcDbLinetypeTableRecord
  2
BYBLOCK
 70
0
  3

 72
65
 73
0
 40
0.0
  0
LTYPE
  5
15
100
AcDbSymbolTableRecord
100
AcDbLinetypeTableRecord
  2
BYLAYER
 70
0
  3

 72
65
 73
0
 40
0.0
  0
LTYPE
  5
16
100
AcDbSymbolTableRecord
100
AcDbLinetypeTableRecord
  2
CONTINUOUS
 70
64
  3
Solid line
 72
65
 73
0
 40
0.0
  0
LTYPE
  5
1F5
100
AcDbSymbolTableRecord
100
AcDbLinetypeTableRecord
  2
CENTER
 70
64
  3
____ _ ____ _ ____ _ ____ _ ____ _ ____ _ ____
 72
65
 73
4
 40
0.6
 49
0.375
 74
0
 49
-0.075
 74
0
 49
0.075
 74
0
 49
-0.075
 74
0
  0
LTYPE
  5
1F6
100
AcDbSymbolTableRecord
100
AcDbLinetypeTableRecord
  2
HIDDEN
 70
64
  3
- - - - - - - - - - - - - - - - - - - -
 72
65
 73
2
 40
0.2
 49
0.1
 74
0
 49
-0.1
 74
0
  0
LTYPE
  5
1F7
100
AcDbSymbolTableRecord
100
AcDbLinetypeTableRecord
  2
PHANTOM
 70
64
  3
_____ _ _ _____ _ _ _____ _ _ _____
 72
65
 73
6
 40
0.8
 49
0.45
 74
0
 49
-0.05
 74
0
 49
0.1
 74
0
 49
-0.05
 74
0
 49
0.1
 74
0
 49
-0.05
 74
0
  0
LTYPE
  5
1F8
100
AcDbSymbolTableRecord
100
AcDbLinetypeTableRecord
  2
DOT
 70
64
  3
. . . . . . . . . . . . . . . . . . . .
 72
65
 73
2
 40
0.2
 49
0.1
 74
0
 49
-0.1
 74
0
  0
LTYPE
  5
1F9
100
AcDbSymbolTableRecord
100
AcDbLinetypeTableRecord
  2
DASHED
 70
64
  3
- - - - - - - - - - - - - - - - - - - -
 72
65
 73
2
 40
0.2
 49
0.1
 74
0
 49
-0.1
 74
0
  0
ENDTAB
  0
TABLE
  2
LAYER
  5
2
100
AcDbSymbolTable
 70
36
  0
LAYER
  5
10
100
AcDbSymbolTableRecord
100
AcDbLayerTableRecord
  2
0
 70
0
 62
7
  6
CONTINUOUS
370
-3
390
F
  0
LAYER
  5
1FA
100
AcDbSymbolTableRecord
100
AcDbLayerTableRecord
  2
DEFAULT_1
 70
0
 62
7
  6
CENTER
370
-3
390
F
  0
LAYER
  5
1FB
100
AcDbSymbolTableRecord
100
AcDbLayerTableRecord
  2
DEFAULT_2
 70
0
 62
8
  6
HIDDEN
370
-3
390
F
  0
LAYER
  5
1FC
100
AcDbSymbolTableRecord
100
AcDbLayerTableRecord
  2
DEFAULT_3
 70
0
 62
7
  6
PHANTOM
370
-3
390
F
  0
LAYER
  5
1FD
100
AcDbSymbolTableRecord
100
AcDbLayerTableRecord
  2
1_ALL_DTM
 70
0
 62
7
  6
CONTINUOUS
370
-3
390
F
  0
LAYER
  5
1FE
100
AcDbSymbolTableRecord
100
AcDbLayerTableRecord
  2
2_ALL_CSYS
 70
0
 62
7
  6
CONTINUOUS
370
-3
390
F
  0
LAYER
  5
1FF
100
AcDbSymbolTableRecord
100
AcDbLayerTableRecord
  2
3_ALL_AXIS
 70
0
 62
7
  6
CONTINUOUS
370
-3
390
F
  0
LAYER
  5
200
100
AcDbSymbolTableRecord
100
AcDbLayerTableRecord
  2
5_ALL_CURVE
 70
0
 62
7
  6
CONTINUOUS
370
-3
390
F
  0
LAYER
  5
201
100
AcDbSymbolTableRecord
100
AcDbLayerTableRecord
  2
8_ALL_EXT_COPY_GEOM_FEATS
 70
0
 62
7
  6
CONTINUOUS
370
-3
390
F
  0
LAYER
  5
202
100
AcDbSymbolTableRecord
100
AcDbLayerTableRecord
  2
95_ALL_DIM
 70
0
 62
7
  6
CONTINUOUS
370
-3
390
F
  0
LAYER
  5
203
100
AcDbSymbolTableRecord
100
AcDbLayerTableRecord
  2
9_ALL_SOLID_GEOM
 70
0
 62
7
  6
CONTINUOUS
370
-3
390
F
  0
LAYER
  5
204
100
AcDbSymbolTableRecord
100
AcDbLayerTableRecord
  2
CRV_XY
 70
0
 62
7
  6
CONTINUOUS
370
-3
390
F
  0
LAYER
  5
205
100
AcDbSymbolTableRecord
100
AcDbLayerTableRecord
  2
CRV_Z
 70
0
 62
7
  6
CONTINUOUS
370
-3
390
F
  0
LAYER
  5
206
100
AcDbSymbolTableRecord
100
AcDbLayerTableRecord
  2
DRIVEN_DIM
 70
0
 62
7
  6
CONTINUOUS
370
-3
390
F
  0
LAYER
  5
207
100
AcDbSymbolTableRecord
100
AcDbLayerTableRecord
  2
DTM_AXIS
 70
0
 62
7
  6
CONTINUOUS
370
-3
390
F
  0
LAYER
  5
208
100
AcDbSymbolTableRecord
100
AcDbLayerTableRecord
  2
DTM_CRV
 70
0
 62
7
  6
CONTINUOUS
370
-3
390
F
  0
LAYER
  5
209
100
AcDbSymbolTableRecord
100
AcDbLayerTableRecord
  2
DTM_CSY
 70
0
 62
7
  6
CONTINUOUS
370
-3
390
F
  0
LAYER
  5
20A
100
AcDbSymbolTableRecord
100
AcDbLayerTableRecord
  2
DTM_PLNS
 70
0
 62
7
  6
CONTINUOUS
370
-3
390
F
  0
LAYER
  5
20B
100
AcDbSymbolTableRecord
100
AcDbLayerTableRecord
  2
DTM_PNT
 70
0
 62
7
  6
CONTINUOUS
370
-3
390
F
  0
ENDTAB
  0
TABLE
  2
STYLE
  5
3
100
AcDbSymbolTable
 70
1
  0
STYLE
  5
11
100
AcDbSymbolTableRecord
100
AcDbTextStyleTableRecord
  2
STANDARD
 70
0
 40
0.0
 41
0.8
 50
0.0
 71
0
 42
0.2
  3
txt
  4

  0
STYLE
  5
20C
100
AcDbSymbolTableRecord
100
AcDbTextStyleTableRecord
  2
TEXTSTYLE_1
 70
0
 40
0.0
 41
0.8
 50
0.0
 71
0
 42
0.2
  3
gdt
  4

  0
ENDTAB
  0
TABLE
  2
VIEW
  5
6
100
AcDbSymbolTable
 70
0
  0
ENDTAB
  0
TABLE
  2
UCS
  5
7
100
AcDbSymbolTable
 70
0
  0
ENDTAB
  0
TABLE
  2
APPID
  5
9
100
AcDbSymbolTable
 70
1
  0
APPID
  5
20D
100
AcDbSymbolTableRecord
100
AcDbRegAppTableRecord
  2
ACAD
 70
0
  0
ENDTAB
  0
TABLE
  2
BLOCK_RECORD
  5
1
100
AcDbSymbolTable
 70
0
  0
BLOCK_RECORD
  5
20E
100
AcDbSymbolTableRecord
100
AcDbBlockTableRecord
  2
*Model_Space
  0
BLOCK_RECORD
  5
20F
100
AcDbSymbolTableRecord
100
AcDbBlockTableRecord
  2
*Paper_Space
  0
BLOCK_RECORD
  5
210
100
AcDbSymbolTableRecord
100
AcDbBlockTableRecord
  2
_OPEN
  0
BLOCK_RECORD
  5
211
100
AcDbSymbolTableRecord
100
AcDbBlockTableRecord
  2
*D0
  0
BLOCK_RECORD
  5
212
100
AcDbSymbolTableRecord
100
AcDbBlockTableRecord
  2
*D1
  0
BLOCK_RECORD
  5
213
100
AcDbSymbolTableRecord
100
AcDbBlockTableRecord
  2
*D2
  0
BLOCK_RECORD
  5
214
100
AcDbSymbolTableRecord
100
AcDbBlockTableRecord
  2
*D3
  0
BLOCK_RECORD
  5
215
100
AcDbSymbolTableRecord
100
AcDbBlockTableRecord
  2
*D4
  0
BLOCK_RECORD
  5
216
100
AcDbSymbolTableRecord
100
AcDbBlockTableRecord
  2
*D5
  0
BLOCK_RECORD
  5
217
100
AcDbSymbolTableRecord
100
AcDbBlockTableRecord
  2
*D6
  0
BLOCK_RECORD
  5
218
100
AcDbSymbolTableRecord
100
AcDbBlockTableRecord
  2
*D7
  0
BLOCK_RECORD
  5
219
100
AcDbSymbolTableRecord
100
AcDbBlockTableRecord
  2
*D8
  0
BLOCK_RECORD
  5
21A
100
AcDbSymbolTableRecord
100
AcDbBlockTableRecord
  2
*D9
  0
BLOCK_RECORD
  5
21B
100
AcDbSymbolTableRecord
100
AcDbBlockTableRecord
  2
*D10
  0
BLOCK_RECORD
  5
21C
100
AcDbSymbolTableRecord
100
AcDbBlockTableRecord
  2
*D11
  0
BLOCK_RECORD
  5
21D
100
AcDbSymbolTableRecord
100
AcDbBlockTableRecord
  2
*D12
  0
BLOCK_RECORD
  5
21E
100
AcDbSymbolTableRecord
100
AcDbBlockTableRecord
  2
*D13
  0
BLOCK_RECORD
  5
21F
100
AcDbSymbolTableRecord
100
AcDbBlockTableRecord
  2
*D14
  0
BLOCK_RECORD
  5
220
100
AcDbSymbolTableRecord
100
AcDbBlockTableRecord
  2
*D15
  0
BLOCK_RECORD
  5
221
100
AcDbSymbolTableRecord
100
AcDbBlockTableRecord
  2
*D16
  0
BLOCK_RECORD
  5
222
100
AcDbSymbolTableRecord
100
AcDbBlockTableRecord
  2
*D17
  0
BLOCK_RECORD
  5
223
100
AcDbSymbolTableRecord
100
AcDbBlockTableRecord
  2
*D18
  0
BLOCK_RECORD
  5
224
100
AcDbSymbolTableRecord
100
AcDbBlockTableRecord
  2
*D19
  0
BLOCK_RECORD
  5
225
100
AcDbSymbolTableRecord
100
AcDbBlockTableRecord
  2
*D20
  0
ENDTAB
  0
TABLE
  2
DIMSTYLE
  5
A
100
AcDbSymbolTable
 70
1
100
AcDbDimStyleTable
 71
0
  0
DIMSTYLE
105
226
100
AcDbSymbolTableRecord
100
AcDbDimStyleTableRecord
  2
STANDARD
 70
0
  3

  4

 40
1.0
 41
1.5
 42
1.0
 43
0.38
 44
1.0
 45
0.0
 46
0.0
 47
0.001
 48
0.001
140
3.0
141
0.09
142
0.0
143
25.4
144
1.0
145
0.0
146
1.0
147
0.625
 71
1.0
 72
0.0
 73
0
 74
0
 75
0
 76
0
 77
1
 78
8
 79
2
170
0
171
2
172
0
173
0
174
0
175
0
176
0
177
0
178
0
270
2
179
3
271
3
272
3
273
2
274
2
275
0
280
0
281
0
282
0
283
1
284
8
285
0
286
0
287
3
288
0
340
11
278
46
341
210
342
210
343
210
344
210
  0
DIMSTYLE
105
227
100
AcDbSymbolTableRecord
100
AcDbDimStyleTableRecord
  2
DIMSTYLE_1
 70
0
  3
<>
  4

 40
1.0
 41
1.5
 42
1.0
 43
0.38
 44
1.0
 45
0.0
 46
0.0
 47
0.5
 48
0.5
140
3.0
141
0.09
142
0.0
143
25.4
144
1.0
145
0.0
146
1.0
147
0.625
 71
0.0
 72
0.0
 73
0
 74
0
 75
0
 76
0
 77
1
 78
8
 79
2
170
0
171
2
172
0
173
0
174
0
175
0
176
0
177
0
178
0
270
2
179
3
271
3
272
0
273
2
274
2
275
0
280
0
281
0
282
0
283
1
284
8
285
0
286
0
287
3
288
0
340
11
278
46
341
210
342
210
343
210
344
210
  0
DIMSTYLE
105
228
100
AcDbSymbolTableRecord
100
AcDbDimStyleTableRecord
  2
DIMSTYLE_2
 70
0
  3

  4

 40
1.0
 41
1.5
 42
1.0
 43
0.38
 44
1.0
 45
0.0
 46
0.0
 47
0.5
 48
0.5
140
3.0
141
0.09
142
0.0
143
25.4
144
1.0
145
0.0
146
1.0
147
3.0
 71
0.0
 72
0.0
 73
0
 74
0
 75
0
 76
0
 77
1
 78
8
 79
2
170
0
171
2
172
0
173
0
174
0
175
0
176
0
177
0
178
0
270
2
179
3
271
4
272
-1
273
2
274
2
275
0
280
0
281
0
282
0
283
1
284
8
285
0
286
0
287
3
288
0
340
11
278
46
341
210
342
210
343
210
344
210
  0
DIMSTYLE
105
229
100
AcDbSymbolTableRecord
100
AcDbDimStyleTableRecord
  2
DIMSTYLE_3
 70
0
  3
<>
  4

 40
1.0
 41
1.5
 42
1.0
 43
0.38
 44
1.0
 45
0.0
 46
0.0
 47
0.3
 48
0.3
140
3.0
141
0.09
142
0.0
143
25.4
144
1.0
145
0.0
146
1.0
147
0.625
 71
0.0
 72
0.0
 73
0
 74
0
 75
0
 76
0
 77
1
 78
8
 79
2
170
0
171
2
172
0
173
0
174
0
175
0
176
0
177
0
178
0
270
2
179
3
271
3
272
0
273
2
274
2
275
0
280
0
281
0
282
0
283
1
284
8
285
0
286
0
287
3
288
0
340
11
278
46
341
210
342
210
343
210
344
210
  0
DIMSTYLE
105
22A
100
AcDbSymbolTableRecord
100
AcDbDimStyleTableRecord
  2
DIMSTYLE_4
 70
0
  3

  4

 40
1.0
 41
1.5
 42
1.0
 43
0.38
 44
1.0
 45
0.0
 46
0.0
 47
0.5
 48
0.5
140
3.0
141
0.09
142
0.0
143
25.4
144
1.0
145
0.0
146
1.0
147
0.75
 71
0.0
 72
0.0
 73
0
 74
0
 75
0
 76
0
 77
1
 78
8
 79
2
170
0
171
2
172
0
173
0
174
0
175
0
176
0
177
0
178
0
270
2
179
3
271
3
272
0
273
2
274
2
275
0
280
0
281
0
282
0
283
1
284
8
285
0
286
0
287
3
288
0
340
11
278
46
341
210
342
210
343
210
344
210
  0
DIMSTYLE
105
22B
100
AcDbSymbolTableRecord
100
AcDbDimStyleTableRecord
  2
DIMSTYLE_5
 70
0
  3

  4

 40
1.0
 41
1.5
 42
1.0
 43
0.38
 44
1.0
 45
0.0
 46
0.0
 47
0.3
 48
0.3
140
3.0
141
0.09
142
0.0
143
25.4
144
1.0
145
0.0
146
1.0
147
0.75
 71
0.0
 72
0.0
 73
0
 74
0
 75
0
 76
0
 77
1
 78
8
 79
2
170
0
171
2
172
0
173
0
174
0
175
0
176
0
177
0
178
0
270
2
179
3
271
3
272
0
273
2
274
2
275
0
280
0
281
0
282
0
283
1
284
8
285
0
286
0
287
3
288
0
340
11
278
46
341
210
342
210
343
210
344
210
  0
DIMSTYLE
105
22C
100
AcDbSymbolTableRecord
100
AcDbDimStyleTableRecord
  2
DIMSTYLE_6
 70
0
  3

  4

 40
1.0
 41
1.5
 42
1.0
 43
0.38
 44
1.0
 45
0.0
 46
0.0
 47
0.1
 48
0.1
140
3.0
141
0.09
142
0.0
143
25.4
144
1.0
145
0.0
146
1.0
147
0.75
 71
0.0
 72
0.0
 73
0
 74
0
 75
0
 76
0
 77
1
 78
8
 79
2
170
0
171
2
172
0
173
0
174
0
175
0
176
0
177
0
178
0
270
2
179
3
271
3
272
0
273
2
274
2
275
0
280
0
281
0
282
0
283
1
284
8
285
0
286
0
287
3
288
0
340
11
278
46
341
210
342
210
343
210
344
210
  0
ENDTAB
  0
ENDSEC
  0
SECTION
  2
BLOCKS
  0
BLOCK
  5
20
100
AcDbEntity
  8
0
100
AcDbBlockBegin
  2
*Model_Space
 70
0
 10
0.0
 20
0.0
 30
0.0
  3
*Model_Space
  1

  0
ENDBLK
  5
21
100
AcDbEntity
  8
0
100
AcDbBlockEnd
  0
BLOCK
  5
1C
100
AcDbEntity
  8
0
100
AcDbBlockBegin
  2
*Paper_Space
 70
0
 10
0.0
 20
0.0
 30
0.0
  3
*Paper_Space
  1

  0
ENDBLK
  5
1D
100
AcDbEntity
  8
0
100
AcDbBlockEnd
  0
BLOCK
  5
22D
100
AcDbEntity
  8
0
100
AcDbBlockBegin
  2
_OPEN
 70
64
 10
0.0
 20
0.0
  3
_OPEN
  1

  0
LINE
  5
22E
100
AcDbEntity
  8
0
  6
BYBLOCK
 62
0
100
AcDbLine
 10
0.0
 20
0.0
 11
-1.0
 21
0.2333333333
  0
LINE
  5
22F
100
AcDbEntity
  8
0
  6
BYBLOCK
 62
0
100
AcDbLine
 10
-1.0
 20
-0.2333333333
 11
0.0
 21
0.0
  0
LINE
  5
230
100
AcDbEntity
  8
0
  6
BYBLOCK
 62
0
100
AcDbLine
 10
-1.0
 20
0.0
 11
0.0
 21
0.0
  0
ENDBLK
  5
231
100
AcDbEntity
  8
0
  6
BYBLOCK
 62
0
100
AcDbBlockEnd
  0
BLOCK
  5
232
100
AcDbEntity
  8
0
100
AcDbBlockBegin
 62
2
  6
CONTINUOUS
  2
*D0
 70
65
 10
0.0
 20
0.0
  3
*D0
  1

  0
LINE
  5
233
100
AcDbEntity
  8
0
100
AcDbLine
 62
2
  6
CONTINUOUS
 10
412.746952439
 20
517.617696518
 11
424.3820592901
 21
531.7957435492
  0
INSERT
  5
234
100
AcDbEntity
  8
0
100
AcDbBlockReference
 62
2
  6
CONTINUOUS
  2
_OPEN
 10
412.746952439
 20
517.617696518
 41
1.5
 42
1.5
 43
1.5
 50
230.6262451844
  0
ENDBLK
  5
235
100
AcDbEntity
  8
0
  6
BYBLOCK
 62
0
100
AcDbBlockEnd
  0
BLOCK
  5
236
100
AcDbEntity
  8
0
100
AcDbBlockBegin
 62
2
  6
CONTINUOUS
  2
*D1
 70
65
 10
0.0
 20
0.0
  3
*D1
  1

  0
LINE
  5
237
100
AcDbEntity
  8
0
100
AcDbLine
 62
2
  6
CONTINUOUS
 10
396.9571029813
 20
491.7090313671
 11
411.1385852702
 21
508.2632540795
  0
INSERT
  5
238
100
AcDbEntity
  8
0
100
AcDbBlockReference
 62
2
  6
CONTINUOUS
  2
_OPEN
 10
396.9571029813
 20
491.7090313671
 41
1.5
 42
1.5
 43
1.5
 50
229.4143744332
  0
ENDBLK
  5
239
100
AcDbEntity
  8
0
  6
BYBLOCK
 62
0
100
AcDbBlockEnd
  0
BLOCK
  5
23A
100
AcDbEntity
  8
0
100
AcDbBlockBegin
 62
2
  6
CONTINUOUS
  2
*D2
 70
65
 10
0.0
 20
0.0
  3
*D2
  1

  0
LINE
  5
23B
100
AcDbEntity
  8
0
100
AcDbLine
 62
2
  6
CONTINUOUS
 10
303.5526016186
 20
406.9862797293
 11
305.188429893
 21
404.9662000447
  0
LINE
  5
23C
100
AcDbEntity
  8
0
100
AcDbLine
 62
2
  6
CONTINUOUS
 10
266.8403610013
 20
453.3221212777
 11
266.8403610013
 21
477.3384634898
  0
LINE
  5
23D
100
AcDbEntity
  8
0
100
AcDbLine
 62
2
  6
CONTINUOUS
 10
266.8403610013
 20
477.3384634898
 11
266.8403610013
 21
513.2578059259
  0
ARC
  5
23E
100
AcDbEntity
  8
0
100
AcDbCircle
 62
2
  6
CONTINUOUS
 10
266.8403610013
 20
452.3221212777
 40
59.9356846482
100
AcDbArc
 50
309.0
 51
19.5
  0
ARC
  5
23F
100
AcDbEntity
  8
0
100
AcDbCircle
 62
2
  6
CONTINUOUS
 10
266.8403610013
 20
452.3221212777
 40
59.9356846482
100
AcDbArc
 50
19.5
 51
90.0
  0
LWPOLYLINE
  5
240
100
AcDbEntity
  8
0
100
AcDbPolyline
 62
2
  6
CONTINUOUS
 90
3
 70
0
 10
305.4892766015
 20
406.9710630611
 10
304.5591095019
 20
405.7433460062
 10
305.9365735323
 20
406.4326157974
  0
LWPOLYLINE
  5
241
100
AcDbEntity
  8
0
100
AcDbPolyline
 62
2
  6
CONTINUOUS
 90
3
 70
0
 10
268.3446231441
 20
512.5890088935
 10
266.8403610013
 20
512.2578059259
 10
268.3358639833
 20
511.8890636977
  0
ENDBLK
  5
242
100
AcDbEntity
  8
0
  6
BYBLOCK
 62
0
100
AcDbBlockEnd
  0
BLOCK
  5
243
100
AcDbEntity
  8
0
100
AcDbBlockBegin
 62
2
  6
CONTINUOUS
  2
*D3
 70
65
 10
0.0
 20
0.0
  3
*D3
  1

  0
LINE
  5
244
100
AcDbEntity
  8
0
100
AcDbLine
 62
2
  6
CONTINUOUS
 10
266.8403610013
 20
453.3221212777
 11
266.8403610013
 21
471.8983860539
  0
LINE
  5
245
100
AcDbEntity
  8
0
100
AcDbLine
 62
2
  6
CONTINUOUS
 10
266.8403610013
 20
471.8983860539
 11
266.8403610013
 21
513.2578059154
  0
LINE
  5
246
100
AcDbEntity
  8
0
100
AcDbLine
 62
2
  6
CONTINUOUS
 10
230.1281203839
 20
406.9862797293
 11
228.4922921162
 21
404.9662000529
  0
ARC
  5
247
100
AcDbEntity
  8
0
100
AcDbCircle
 62
2
  6
CONTINUOUS
 10
266.8403610013
 20
452.3221212777
 40
59.9356846377
100
AcDbArc
 50
90.0
 51
160.5
  0
ARC
  5
248
100
AcDbEntity
  8
0
100
AcDbCircle
 62
2
  6
CONTINUOUS
 10
266.8403610013
 20
452.3221212777
 40
59.9356846377
100
AcDbArc
 50
160.5
 51
231.0
  0
LWPOLYLINE
  5
249
100
AcDbEntity
  8
0
100
AcDbPolyline
 62
2
  6
CONTINUOUS
 90
3
 70
0
 10
265.3448580193
 20
511.8890636873
 10
266.8403610013
 20
512.2578059154
 10
265.3360988585
 20
512.5890088831
  0
LWPOLYLINE
  5
24A
100
AcDbEntity
  8
0
100
AcDbPolyline
 62
2
  6
CONTINUOUS
 90
3
 70
0
 10
227.7441484769
 20
406.4326158056
 10
229.1216125072
 20
405.7433460143
 10
228.1914454076
 20
406.9710630692
  0
ENDBLK
  5
24B
100
AcDbEntity
  8
0
  6
BYBLOCK
 62
0
100
AcDbBlockEnd
  0
BLOCK
  5
24C
100
AcDbEntity
  8
0
100
AcDbBlockBegin
 62
2
  6
CONTINUOUS
  2
*D4
 70
65
 10
0.0
 20
0.0
  3
*D4
  1

  0
LINE
  5
24D
100
AcDbEntity
  8
0
100
AcDbLine
 62
2
  6
CONTINUOUS
 10
347.9278854328
 20
417.8032945285
 11
363.813368047
 21
433.0802262217
  0
INSERT
  5
24E
100
AcDbEntity
  8
0
100
AcDbBlockReference
 62
2
  6
CONTINUOUS
  2
_OPEN
 10
347.9278854328
 20
417.8032945285
 41
1.5
 42
1.5
 43
1.5
 50
223.8812494515
  0
ENDBLK
  5
24F
100
AcDbEntity
  8
0
  6
BYBLOCK
 62
0
100
AcDbBlockEnd
  0
BLOCK
  5
250
100
AcDbEntity
  8
0
100
AcDbBlockBegin
 62
2
  6
CONTINUOUS
  2
*D5
 70
65
 10
0.0
 20
0.0
  3
*D5
  1

  0
LINE
  5
251
100
AcDbEntity
  8
0
100
AcDbLine
 62
2
  6
CONTINUOUS
 10
266.8403610013
 20
269.023541604
 11
266.8403610013
 21
244.8423351015
  0
INSERT
  5
252
100
AcDbEntity
  8
0
100
AcDbBlockReference
 62
2
  6
CONTINUOUS
  2
_OPEN
 10
266.8403610013
 20
269.023541604
 41
1.5
 42
1.5
 43
1.5
 50
90.0
  0
ENDBLK
  5
253
100
AcDbEntity
  8
0
  6
BYBLOCK
 62
0
100
AcDbBlockEnd
  0
BLOCK
  5
254
100
AcDbEntity
  8
0
100
AcDbBlockBegin
 62
2
  6
CONTINUOUS
  2
*D6
 70
65
 10
0.0
 20
0.0
  3
*D6
  1

  0
LINE
  5
255
100
AcDbEntity
  8
0
100
AcDbLine
 62
2
  6
CONTINUOUS
 10
266.8403610013
 20
275.4317109266
 11
266.8403610013
 21
241.8878023107
  0
INSERT
  5
256
100
AcDbEntity
  8
0
100
AcDbBlockReference
 62
2
  6
CONTINUOUS
  2
_OPEN
 10
266.8403610013
 20
275.4317109266
 41
1.5
 42
1.5
 43
1.5
 50
90.0
  0
ENDBLK
  5
257
100
AcDbEntity
  8
0
  6
BYBLOCK
 62
0
100
AcDbBlockEnd
  0
BLOCK
  5
258
100
AcDbEntity
  8
0
100
AcDbBlockBegin
 62
2
  6
CONTINUOUS
  2
*D7
 70
65
 10
0.0
 20
0.0
  3
*D7
  1

  0
LINE
  5
259
100
AcDbEntity
  8
0
100
AcDbLine
 62
2
  6
CONTINUOUS
 10
317.3485117418
 20
379.6504162688
 11
341.8286088781
 21
344.4281725002
  0
LINE
  5
25A
100
AcDbEntity
  8
0
100
AcDbLine
 62
2
  6
CONTINUOUS
 10
341.8286088781
 20
344.4281725002
 11
344.1309516371
 21
341.1155354038
  0
LINE
  5
25B
100
AcDbEntity
  8
0
100
AcDbLine
 62
2
  6
CONTINUOUS
 10
322.5352156093
 20
383.5447036886
 11
349.4558637459
 21
350.3004718525
  0
LINE
  5
25C
100
AcDbEntity
  8
0
100
AcDbLine
 62
2
  6
CONTINUOUS
 10
349.4558637459
 20
350.3004718525
 11
352.0679558537
 21
347.074806736
  0
ARC
  5
25D
100
AcDbEntity
  8
0
100
AcDbCircle
 62
2
  6
CONTINUOUS
 10
266.8403610013
 20
452.3221212777
 40
134.427988771
100
AcDbArc
 50
304.8
 51
306.9
  0
ARC
  5
25E
100
AcDbEntity
  8
0
100
AcDbCircle
 62
2
  6
CONTINUOUS
 10
266.8403610013
 20
452.3221212777
 40
134.427988771
100
AcDbArc
 50
306.9
 51
309.0
  0
LWPOLYLINE
  5
25F
100
AcDbEntity
  8
0
100
AcDbPolyline
 62
2
  6
CONTINUOUS
 90
3
 70
0
 10
344.5858164495
 20
343.085896946
 10
343.5602380695
 20
341.936684613
 10
344.9885166588
 20
342.5133303198
  0
LWPOLYLINE
  5
260
100
AcDbEntity
  8
0
100
AcDbPolyline
 62
2
  6
CONTINUOUS
 90
3
 70
0
 10
350.4864092081
 20
346.6412648103
 10
351.4386354627
 20
347.8519526975
 10
350.0489268691
 20
347.1877162748
  0
ENDBLK
  5
261
100
AcDbEntity
  8
0
  6
BYBLOCK
 62
0
100
AcDbBlockEnd
  0
BLOCK
  5
262
100
AcDbEntity
  8
0
100
AcDbBlockBegin
 62
2
  6
CONTINUOUS
  2
*D8
 70
65
 10
0.0
 20
0.0
  3
*D8
  1

  0
LINE
  5
263
100
AcDbEntity
  8
0
100
AcDbLine
 62
2
  6
CONTINUOUS
 10
211.145506393
 20
383.5447036884
 11
186.9618869287
 21
353.6804207772
  0
LINE
  5
264
100
AcDbEntity
  8
0
100
AcDbLine
 62
2
  6
CONTINUOUS
 10
184.1313657599
 20
350.1850182343
 11
181.6127663762
 21
347.0748070169
  0
LINE
  5
265
100
AcDbEntity
  8
0
100
AcDbLine
 62
2
  6
CONTINUOUS
 10
216.3322102611
 20
379.6504162692
 11
191.9762820273
 21
344.6068281379
  0
LINE
  5
266
100
AcDbEntity
  8
0
100
AcDbLine
 62
2
  6
CONTINUOUS
 10
191.9762820273
 20
344.6068281379
 11
189.5497705717
 21
341.1155357006
  0
ARC
  5
267
100
AcDbEntity
  8
0
100
AcDbCircle
 62
2
  6
CONTINUOUS
 10
266.8403610013
 20
452.3221212777
 40
134.4279884097
100
AcDbArc
 50
231.0
 51
233.1
  0
ARC
  5
268
100
AcDbEntity
  8
0
100
AcDbCircle
 62
2
  6
CONTINUOUS
 10
266.8403610013
 20
452.3221212777
 40
134.4279884097
100
AcDbArc
 50
233.1
 51
235.2
  0
LWPOLYLINE
  5
269
100
AcDbEntity
  8
0
100
AcDbPolyline
 62
2
  6
CONTINUOUS
 90
3
 70
0
 10
183.6317953608
 20
347.1877165558
 10
182.2420867673
 20
347.8519529784
 10
183.1943130218
 20
346.6412650912
  0
LWPOLYLINE
  5
26A
100
AcDbEntity
  8
0
100
AcDbPolyline
 62
2
  6
CONTINUOUS
 90
3
 70
0
 10
188.69220555
 20
342.5133306166
 10
190.1204841394
 20
341.9366849097
 10
189.0949057594
 20
343.0858972428
  0
ENDBLK
  5
26B
100
AcDbEntity
  8
0
  6
BYBLOCK
 62
0
100
AcDbBlockEnd
  0
BLOCK
  5
26C
100
AcDbEntity
  8
0
100
AcDbBlockBegin
 62
2
  6
CONTINUOUS
  2
*D9
 70
65
 10
0.0
 20
0.0
  3
*D9
  1

  0
LINE
  5
26D
100
AcDbEntity
  8
0
100
AcDbLine
 62
2
  6
CONTINUOUS
 10
91.3785460546
 20
339.8221212777
 11
120.6948908315
 21
339.8221212777
  0
LINE
  5
26E
100
AcDbEntity
  8
0
100
AcDbLine
 62
2
  6
CONTINUOUS
 10
120.6948908315
 20
339.8221212777
 11
122.4448908315
 21
339.8221212777
  0
LINE
  5
26F
100
AcDbEntity
  8
0
100
AcDbLine
 62
2
  6
CONTINUOUS
 10
208.3403610013
 20
216.8221212777
 11
120.6948908315
 21
216.8221212777
  0
LINE
  5
270
100
AcDbEntity
  8
0
100
AcDbLine
 62
2
  6
CONTINUOUS
 10
120.6948908315
 20
216.8221212777
 11
120.4448908315
 21
216.8221212777
  0
LINE
  5
271
100
AcDbEntity
  8
0
100
AcDbLine
 62
2
  6
CONTINUOUS
 10
121.4448908315
 20
339.8221212777
 11
121.4448908315
 21
278.3221212777
  0
LINE
  5
272
100
AcDbEntity
  8
0
100
AcDbLine
 62
2
  6
CONTINUOUS
 10
121.4448908315
 20
216.8221212777
 11
121.4448908315
 21
278.3221212777
  0
INSERT
  5
273
100
AcDbEntity
  8
0
100
AcDbBlockReference
 62
2
  6
CONTINUOUS
  2
_OPEN
 10
121.4448908315
 20
339.8221212777
 41
1.5
 42
1.5
 43
1.5
 50
90.0
  0
INSERT
  5
274
100
AcDbEntity
  8
0
100
AcDbBlockReference
 62
2
  6
CONTINUOUS
  2
_OPEN
 10
121.4448908315
 20
216.8221212777
 41
1.5
 42
1.5
 43
1.5
 50
270.0
  0
ENDBLK
  5
275
100
AcDbEntity
  8
0
  6
BYBLOCK
 62
0
100
AcDbBlockEnd
  0
BLOCK
  5
276
100
AcDbEntity
  8
0
100
AcDbBlockBegin
 62
2
  6
CONTINUOUS
  2
*D10
 70
65
 10
0.0
 20
0.0
  3
*D10
  1

  0
LINE
  5
277
100
AcDbEntity
  8
0
100
AcDbLine
 62
2
  6
CONTINUOUS
 10
209.3403610013
 20
215.8221212777
 11
209.3403610013
 21
135.9359129728
  0
LINE
  5
278
100
AcDbEntity
  8
0
100
AcDbLine
 62
2
  6
CONTINUOUS
 10
209.3403610013
 20
135.9359129728
 11
209.3403610013
 21
134.1859129728
  0
LINE
  5
279
100
AcDbEntity
  8
0
100
AcDbLine
 62
2
  6
CONTINUOUS
 10
324.3403610013
 20
215.8221212777
 11
324.3403610013
 21
135.9359129728
  0
LINE
  5
27A
100
AcDbEntity
  8
0
100
AcDbLine
 62
2
  6
CONTINUOUS
 10
324.3403610013
 20
135.9359129728
 11
324.3403610013
 21
134.1859129728
  0
LINE
  5
27B
100
AcDbEntity
  8
0
100
AcDbLine
 62
2
  6
CONTINUOUS
 10
209.3403610013
 20
135.1859129728
 11
266.8403610013
 21
135.1859129728
  0
LINE
  5
27C
100
AcDbEntity
  8
0
100
AcDbLine
 62
2
  6
CONTINUOUS
 10
324.3403610013
 20
135.1859129728
 11
266.8403610013
 21
135.1859129728
  0
INSERT
  5
27D
100
AcDbEntity
  8
0
100
AcDbBlockReference
 62
2
  6
CONTINUOUS
  2
_OPEN
 10
209.3403610013
 20
135.1859129728
 41
1.5
 42
1.5
 43
1.5
 50
180.0
  0
INSERT
  5
27E
100
AcDbEntity
  8
0
100
AcDbBlockReference
 62
2
  6
CONTINUOUS
  2
_OPEN
 10
324.3403610013
 20
135.1859129728
 41
1.5
 42
1.5
 43
1.5
  0
ENDBLK
  5
27F
100
AcDbEntity
  8
0
  6
BYBLOCK
 62
0
100
AcDbBlockEnd
  0
BLOCK
  5
280
100
AcDbEntity
  8
0
100
AcDbBlockBegin
 62
2
  6
CONTINUOUS
  2
*D11
 70
65
 10
0.0
 20
0.0
  3
*D11
  1

  0
LINE
  5
281
100
AcDbEntity
  8
0
100
AcDbLine
 62
2
  6
CONTINUOUS
 10
467.8403610013
 20
339.8221212777
 11
504.0903610013
 21
339.8221212777
  0
LINE
  5
282
100
AcDbEntity
  8
0
100
AcDbLine
 62
2
  6
CONTINUOUS
 10
504.0903610013
 20
339.8221212777
 11
505.8403610013
 21
339.8221212777
  0
LINE
  5
283
100
AcDbEntity
  8
0
100
AcDbLine
 62
2
  6
CONTINUOUS
 10
351.4441538675
 20
177.0449280623
 11
504.0903610013
 21
177.0449280623
  0
LINE
  5
284
100
AcDbEntity
  8
0
100
AcDbLine
 62
2
  6
CONTINUOUS
 10
504.0903610013
 20
177.0449280623
 11
505.8403610013
 21
177.0449280623
  0
LINE
  5
285
100
AcDbEntity
  8
0
100
AcDbLine
 62
2
  6
CONTINUOUS
 10
504.8403610013
 20
339.8221212777
 11
504.8403610013
 21
258.43352467
  0
LINE
  5
286
100
AcDbEntity
  8
0
100
AcDbLine
 62
2
  6
CONTINUOUS
 10
504.8403610013
 20
177.0449280623
 11
504.8403610013
 21
258.43352467
  0
INSERT
  5
287
100
AcDbEntity
  8
0
100
AcDbBlockReference
 62
2
  6
CONTINUOUS
  2
_OPEN
 10
504.8403610013
 20
339.8221212777
 41
1.5
 42
1.5
 43
1.5
 50
90.0
  0
INSERT
  5
288
100
AcDbEntity
  8
0
100
AcDbBlockReference
 62
2
  6
CONTINUOUS
  2
_OPEN
 10
504.8403610013
 20
177.0449280623
 41
1.5
 42
1.5
 43
1.5
 50
270.0
  0
ENDBLK
  5
289
100
AcDbEntity
  8
0
  6
BYBLOCK
 62
0
100
AcDbBlockEnd
  0
BLOCK
  5
28A
100
AcDbEntity
  8
0
100
AcDbBlockBegin
 62
2
  6
CONTINUOUS
  2
*D12
 70
65
 10
0.0
 20
0.0
  3
*D12
  1

  0
LINE
  5
28B
100
AcDbEntity
  8
0
100
AcDbLine
 62
2
  6
CONTINUOUS
 10
347.6670688616
 20
173.0507726568
 11
512.0903610013
 21
173.0507726568
  0
LINE
  5
28C
100
AcDbEntity
  8
0
100
AcDbLine
 62
2
  6
CONTINUOUS
 10
512.0903610013
 20
173.0507726568
 11
513.8403610013
 21
173.0507726568
  0
LINE
  5
28D
100
AcDbEntity
  8
0
100
AcDbLine
 62
2
  6
CONTINUOUS
 10
467.8403610013
 20
339.8221212777
 11
512.0903610013
 21
339.8221212777
  0
LINE
  5
28E
100
AcDbEntity
  8
0
100
AcDbLine
 62
2
  6
CONTINUOUS
 10
512.0903610013
 20
339.8221212777
 11
513.8403610013
 21
339.8221212777
  0
LINE
  5
28F
100
AcDbEntity
  8
0
100
AcDbLine
 62
2
  6
CONTINUOUS
 10
512.8403610013
 20
173.0507726568
 11
512.8403610013
 21
256.4364469673
  0
LINE
  5
290
100
AcDbEntity
  8
0
100
AcDbLine
 62
2
  6
CONTINUOUS
 10
512.8403610013
 20
339.8221212777
 11
512.8403610013
 21
256.4364469673
  0
INSERT
  5
291
100
AcDbEntity
  8
0
100
AcDbBlockReference
 62
2
  6
CONTINUOUS
  2
_OPEN
 10
512.8403610013
 20
173.0507726568
 41
1.5
 42
1.5
 43
1.5
 50
270.0
  0
INSERT
  5
292
100
AcDbEntity
  8
0
100
AcDbBlockReference
 62
2
  6
CONTINUOUS
  2
_OPEN
 10
512.8403610013
 20
339.8221212777
 41
1.5
 42
1.5
 43
1.5
 50
90.0
  0
ENDBLK
  5
293
100
AcDbEntity
  8
0
  6
BYBLOCK
 62
0
100
AcDbBlockEnd
  0
BLOCK
  5
294
100
AcDbEntity
  8
0
100
AcDbBlockBegin
 62
2
  6
CONTINUOUS
  2
*D13
 70
65
 10
0.0
 20
0.0
  3
*D13
  1

  0
LINE
  5
295
100
AcDbEntity
  8
0
100
AcDbLine
 62
2
  6
CONTINUOUS
 10
117.4682510808
 20
205.3268693999
 11
108.2597549267
 21
197.0355022209
  0
LINE
  5
296
100
AcDbEntity
  8
0
100
AcDbLine
 62
2
  6
CONTINUOUS
 10
104.9179234616
 20
194.0265036544
 11
101.943319705
 21
191.3481584017
  0
LINE
  5
297
100
AcDbEntity
  8
0
100
AcDbLine
 62
2
  6
CONTINUOUS
 10
124.2166429579
 20
198.1906450755
 11
112.3617162356
 21
186.4181937961
  0
LINE
  5
298
100
AcDbEntity
  8
0
100
AcDbLine
 62
2
  6
CONTINUOUS
 10
112.3617162356
 20
186.4181937961
 11
109.3931030322
 21
183.4702334145
  0
ARC
  5
299
100
AcDbEntity
  8
0
100
AcDbCircle
 62
2
  6
CONTINUOUS
 10
266.8403610013
 20
339.8221212777
 40
220.8908557836
100
AcDbArc
 50
222.0
 51
223.4
  0
ARC
  5
29A
100
AcDbEntity
  8
0
100
AcDbCircle
 62
2
  6
CONTINUOUS
 10
266.8403610013
 20
339.8221212777
 40
220.8908557836
100
AcDbArc
 50
223.4
 51
224.8
  0
LWPOLYLINE
  5
29B
100
AcDbEntity
  8
0
100
AcDbPolyline
 62
2
  6
CONTINUOUS
 90
3
 70
0
 10
103.9532435101
 20
191.141063571
 10
102.6864645304
 20
192.0172890081
 10
103.4346354768
 20
190.6709085882
  0
LWPOLYLINE
  5
29C
100
AcDbEntity
  8
0
100
AcDbPolyline
 62
2
  6
CONTINUOUS
 90
3
 70
0
 10
108.8001567017
 20
184.9970289772
 10
110.1026737687
 20
184.1748676244
 10
109.2985280829
 20
185.4885836196
  0
ENDBLK
  5
29D
100
AcDbEntity
  8
0
  6
BYBLOCK
 62
0
100
AcDbBlockEnd
  0
BLOCK
  5
29E
100
AcDbEntity
  8
0
100
AcDbBlockBegin
 62
2
  6
CONTINUOUS
  2
*D14
 70
65
 10
0.0
 20
0.0
  3
*D14
  1

  0
LINE
  5
29F
100
AcDbEntity
  8
0
100
AcDbLine
 62
2
  6
CONTINUOUS
 10
409.4640790454
 20
198.1906450747
 11
421.4280316056
 21
186.3099264568
  0
LINE
  5
2A0
100
AcDbEntity
  8
0
100
AcDbLine
 62
2
  6
CONTINUOUS
 10
421.4280316056
 20
186.3099264568
 11
424.2876187037
 21
183.4702336794
  0
LINE
  5
2A1
100
AcDbEntity
  8
0
100
AcDbLine
 62
2
  6
CONTINUOUS
 10
416.2124709319
 20
205.3268693909
 11
428.6875668636
 21
194.094242561
  0
LINE
  5
2A2
100
AcDbEntity
  8
0
100
AcDbLine
 62
2
  6
CONTINUOUS
 10
428.6875668636
 20
194.094242561
 11
431.7374020183
 21
191.3481586533
  0
ARC
  5
2A3
100
AcDbEntity
  8
0
100
AcDbCircle
 62
2
  6
CONTINUOUS
 10
266.8403610013
 20
339.8221212777
 40
220.8908554077
100
AcDbArc
 50
315.2
 51
316.6
  0
ARC
  5
2A4
100
AcDbEntity
  8
0
100
AcDbCircle
 62
2
  6
CONTINUOUS
 10
266.8403610013
 20
339.8221212777
 40
220.8908554077
100
AcDbArc
 50
316.6
 51
318.0
  0
LWPOLYLINE
  5
2A5
100
AcDbEntity
  8
0
100
AcDbPolyline
 62
2
  6
CONTINUOUS
 90
3
 70
0
 10
424.382193653
 20
185.4885838845
 10
423.5780479671
 20
184.1748678893
 10
424.8805650342
 20
184.9970292421
  0
LWPOLYLINE
  5
2A6
100
AcDbEntity
  8
0
100
AcDbPolyline
 62
2
  6
CONTINUOUS
 90
3
 70
0
 10
430.2460862464
 20
190.6709088398
 10
430.9942571928
 20
192.0172892596
 10
429.7274782131
 20
191.1410638225
  0
ENDBLK
  5
2A7
100
AcDbEntity
  8
0
  6
BYBLOCK
 62
0
100
AcDbBlockEnd
  0
BLOCK
  5
2A8
100
AcDbEntity
  8
0
100
AcDbBlockBegin
 62
2
  6
CONTINUOUS
  2
*D15
 70
65
 10
0.0
 20
0.0
  3
*D15
  1

  0
LINE
  5
2A9
100
AcDbEntity
  8
0
100
AcDbLine
 62
2
  6
CONTINUOUS
 10
266.8403610013
 20
453.3221212777
 11
266.8403610013
 21
522.0810591212
  0
LINE
  5
2AA
100
AcDbEntity
  8
0
100
AcDbLine
 62
2
  6
CONTINUOUS
 10
134.2288805153
 20
220.4182079278
 11
131.3955744459
 21
217.8670876841
  0
ARC
  5
2AB
100
AcDbEntity
  8
0
100
AcDbCircle
 62
2
  6
CONTINUOUS
 10
266.8403610013
 20
339.8221212777
 40
181.2589378435
100
AcDbArc
 50
90.0
 51
156.0
  0
ARC
  5
2AC
100
AcDbEntity
  8
0
100
AcDbCircle
 62
2
  6
CONTINUOUS
 10
266.8403610013
 20
339.8221212777
 40
181.2589378435
100
AcDbArc
 50
156.0
 51
222.0
  0
LWPOLYLINE
  5
2AD
100
AcDbEntity
  8
0
100
AcDbPolyline
 62
2
  6
CONTINUOUS
 90
3
 70
0
 10
265.3418220422
 20
520.7248555446
 10
266.8403610013
 20
521.0810591212
 10
265.3389256416
 20
521.4248495523
  0
LWPOLYLINE
  5
2AE
100
AcDbEntity
  8
0
100
AcDbPolyline
 62
2
  6
CONTINUOUS
 90
3
 70
0
 10
130.8785768388
 20
219.4219615093
 10
132.1387192714
 20
218.5362182905
 10
131.4007118338
 20
219.888196479
  0
ENDBLK
  5
2AF
100
AcDbEntity
  8
0
  6
BYBLOCK
 62
0
100
AcDbBlockEnd
  0
BLOCK
  5
2B0
100
AcDbEntity
  8
0
100
AcDbBlockBegin
 62
2
  6
CONTINUOUS
  2
*D16
 70
65
 10
0.0
 20
0.0
  3
*D16
  1

  0
LINE
  5
2B1
100
AcDbEntity
  8
0
100
AcDbLine
 62
2
  6
CONTINUOUS
 10
399.4518414873
 20
220.4182079278
 11
402.2851475533
 21
217.8670876872
  0
LINE
  5
2B2
100
AcDbEntity
  8
0
100
AcDbLine
 62
2
  6
CONTINUOUS
 10
266.8403610013
 20
453.3221212777
 11
266.8403610013
 21
522.0810591167
  0
ARC
  5
2B3
100
AcDbEntity
  8
0
100
AcDbCircle
 62
2
  6
CONTINUOUS
 10
266.8403610013
 20
339.8221212777
 40
181.258937839
100
AcDbArc
 50
318.0
 51
24.0
  0
ARC
  5
2B4
100
AcDbEntity
  8
0
100
AcDbCircle
 62
2
  6
CONTINUOUS
 10
266.8403610013
 20
339.8221212777
 40
181.258937839
100
AcDbArc
 50
24.0
 51
90.0
  0
LWPOLYLINE
  5
2B5
100
AcDbEntity
  8
0
100
AcDbPolyline
 62
2
  6
CONTINUOUS
 90
3
 70
0
 10
402.2800101654
 20
219.888196482
 10
401.5420027279
 20
218.5362182935
 10
402.8021451604
 20
219.4219615123
  0
LWPOLYLINE
  5
2B6
100
AcDbEntity
  8
0
100
AcDbPolyline
 62
2
  6
CONTINUOUS
 90
3
 70
0
 10
268.341796361
 20
521.4248495478
 10
266.8403610013
 20
521.0810591167
 10
268.3388999604
 20
520.72485554
  0
ENDBLK
  5
2B7
100
AcDbEntity
  8
0
  6
BYBLOCK
 62
0
100
AcDbBlockEnd
  0
BLOCK
  5
2B8
100
AcDbEntity
  8
0
100
AcDbBlockBegin
 62
2
  6
CONTINUOUS
  2
*D17
 70
65
 10
0.0
 20
0.0
  3
*D17
  1

  0
LINE
  5
2B9
100
AcDbEntity
  8
0
100
AcDbLine
 62
2
  6
CONTINUOUS
 10
36.8605768107
 20
39.0517049101
 11
28.0903610013
 21
39.0517049101
  0
LINE
  5
2BA
100
AcDbEntity
  8
0
100
AcDbLine
 62
2
  6
CONTINUOUS
 10
28.0903610013
 20
39.0517049101
 11
27.8403610013
 21
39.0517049101
  0
LINE
  5
2BB
100
AcDbEntity
  8
0
100
AcDbLine
 62
2
  6
CONTINUOUS
 10
65.8403610013
 20
44.4017049101
 11
28.0903610013
 21
44.4017049101
  0
LINE
  5
2BC
100
AcDbEntity
  8
0
100
AcDbLine
 62
2
  6
CONTINUOUS
 10
28.0903610013
 20
44.4017049101
 11
27.8403610013
 21
44.4017049101
  0
LINE
  5
2BD
100
AcDbEntity
  8
0
100
AcDbLine
 62
2
  6
CONTINUOUS
 10
28.8403610013
 20
39.0517049101
 11
28.8403610013
 21
34.0517049101
  0
LINE
  5
2BE
100
AcDbEntity
  8
0
100
AcDbLine
 62
2
  6
CONTINUOUS
 10
28.8403610013
 20
34.0517049101
 11
28.8403610013
 21
41.7267049101
  0
LINE
  5
2BF
100
AcDbEntity
  8
0
100
AcDbLine
 62
2
  6
CONTINUOUS
 10
28.8403610013
 20
44.4017049101
 11
28.8403610013
 21
49.636762203
  0
LINE
  5
2C0
100
AcDbEntity
  8
0
100
AcDbLine
 62
2
  6
CONTINUOUS
 10
28.8403610013
 20
49.636762203
 11
28.8403610013
 21
41.7267049101
  0
INSERT
  5
2C1
100
AcDbEntity
  8
0
100
AcDbBlockReference
 62
2
  6
CONTINUOUS
  2
_OPEN
 10
28.8403610013
 20
39.0517049101
 41
1.5
 42
1.5
 43
1.5
 50
90.0
  0
INSERT
  5
2C2
100
AcDbEntity
  8
0
100
AcDbBlockReference
 62
2
  6
CONTINUOUS
  2
_OPEN
 10
28.8403610013
 20
44.4017049101
 41
1.5
 42
1.5
 43
1.5
 50
270.0
  0
ENDBLK
  5
2C3
100
AcDbEntity
  8
0
  6
BYBLOCK
 62
0
100
AcDbBlockEnd
  0
BLOCK
  5
2C4
100
AcDbEntity
  8
0
100
AcDbBlockBegin
 62
2
  6
CONTINUOUS
  2
*D18
 70
65
 10
0.0
 20
0.0
  3
*D18
  1

  0
LINE
  5
2C5
100
AcDbEntity
  8
0
100
AcDbLine
 62
2
  6
CONTINUOUS
 10
65.8403610013
 20
44.4017049101
 11
36.0903610013
 21
44.4017049101
  0
LINE
  5
2C6
100
AcDbEntity
  8
0
100
AcDbLine
 62
2
  6
CONTINUOUS
 10
36.0903610013
 20
44.4017049101
 11
35.8403610013
 21
44.4017049101
  0
LINE
  5
2C7
100
AcDbEntity
  8
0
100
AcDbLine
 62
2
  6
CONTINUOUS
 10
65.8403610013
 20
39.7517049101
 11
36.0903610013
 21
39.7517049101
  0
LINE
  5
2C8
100
AcDbEntity
  8
0
100
AcDbLine
 62
2
  6
CONTINUOUS
 10
36.0903610013
 20
39.7517049101
 11
35.8403610013
 21
39.7517049101
  0
LINE
  5
2C9
100
AcDbEntity
  8
0
100
AcDbLine
 62
2
  6
CONTINUOUS
 10
36.8403610013
 20
44.4017049101
 11
36.8403610013
 21
49.191151302
  0
LINE
  5
2CA
100
AcDbEntity
  8
0
100
AcDbLine
 62
2
  6
CONTINUOUS
 10
36.8403610013
 20
49.191151302
 11
36.8403610013
 21
42.0767049101
  0
LINE
  5
2CB
100
AcDbEntity
  8
0
100
AcDbLine
 62
2
  6
CONTINUOUS
 10
36.8403610013
 20
39.7517049101
 11
36.8403610013
 21
34.7517049101
  0
LINE
  5
2CC
100
AcDbEntity
  8
0
100
AcDbLine
 62
2
  6
CONTINUOUS
 10
36.8403610013
 20
34.7517049101
 11
36.8403610013
 21
42.0767049101
  0
INSERT
  5
2CD
100
AcDbEntity
  8
0
100
AcDbBlockReference
 62
2
  6
CONTINUOUS
  2
_OPEN
 10
36.8403610013
 20
44.4017049101
 41
1.5
 42
1.5
 43
1.5
 50
270.0
  0
INSERT
  5
2CE
100
AcDbEntity
  8
0
100
AcDbBlockReference
 62
2
  6
CONTINUOUS
  2
_OPEN
 10
36.8403610013
 20
39.7517049101
 41
1.5
 42
1.5
 43
1.5
 50
90.0
  0
ENDBLK
  5
2CF
100
AcDbEntity
  8
0
  6
BYBLOCK
 62
0
100
AcDbBlockEnd
  0
BLOCK
  5
2D0
100
AcDbEntity
  8
0
100
AcDbBlockBegin
 62
2
  6
CONTINUOUS
  2
*D19
 70
65
 10
0.0
 20
0.0
  3
*D19
  1

  0
LINE
  5
2D1
100
AcDbEntity
  8
0
100
AcDbLine
 62
2
  6
CONTINUOUS
 10
65.8403610013
 20
44.4017049101
 11
20.0903610013
 21
44.4017049101
  0
LINE
  5
2D2
100
AcDbEntity
  8
0
100
AcDbLine
 62
2
  6
CONTINUOUS
 10
20.0903610013
 20
44.4017049101
 11
19.8403610013
 21
44.4017049101
  0
LINE
  5
2D3
100
AcDbEntity
  8
0
100
AcDbLine
 62
2
  6
CONTINUOUS
 10
65.8403610013
 20
119.4017049101
 11
20.0903610013
 21
119.4017049101
  0
LINE
  5
2D4
100
AcDbEntity
  8
0
100
AcDbLine
 62
2
  6
CONTINUOUS
 10
20.0903610013
 20
119.4017049101
 11
19.8403610013
 21
119.4017049101
  0
LINE
  5
2D5
100
AcDbEntity
  8
0
100
AcDbLine
 62
2
  6
CONTINUOUS
 10
20.8403610013
 20
44.4017049101
 11
20.8403610013
 21
81.9017049101
  0
LINE
  5
2D6
100
AcDbEntity
  8
0
100
AcDbLine
 62
2
  6
CONTINUOUS
 10
20.8403610013
 20
119.4017049101
 11
20.8403610013
 21
81.9017049101
  0
INSERT
  5
2D7
100
AcDbEntity
  8
0
100
AcDbBlockReference
 62
2
  6
CONTINUOUS
  2
_OPEN
 10
20.8403610013
 20
44.4017049101
 41
1.5
 42
1.5
 43
1.5
 50
270.0
  0
INSERT
  5
2D8
100
AcDbEntity
  8
0
100
AcDbBlockReference
 62
2
  6
CONTINUOUS
  2
_OPEN
 10
20.8403610013
 20
119.4017049101
 41
1.5
 42
1.5
 43
1.5
 50
90.0
  0
ENDBLK
  5
2D9
100
AcDbEntity
  8
0
  6
BYBLOCK
 62
0
100
AcDbBlockEnd
  0
BLOCK
  5
2DA
100
AcDbEntity
  8
0
100
AcDbBlockBegin
 62
2
  6
CONTINUOUS
  2
*D20
 70
65
 10
0.0
 20
0.0
  3
*D20
  1

  0
LINE
  5
2DB
100
AcDbEntity
  8
0
100
AcDbLine
 62
2
  6
CONTINUOUS
 10
65.8403610013
 20
119.4017049101
 11
20.0903610013
 21
119.4017049101
  0
LINE
  5
2DC
100
AcDbEntity
  8
0
100
AcDbLine
 62
2
  6
CONTINUOUS
 10
20.0903610013
 20
119.4017049101
 11
19.8403610013
 21
119.4017049101
  0
LINE
  5
2DD
100
AcDbEntity
  8
0
100
AcDbLine
 62
2
  6
CONTINUOUS
 10
65.8403610013
 20
122.6517049101
 11
20.0903610013
 21
122.6517049101
  0
LINE
  5
2DE
100
AcDbEntity
  8
0
100
AcDbLine
 62
2
  6
CONTINUOUS
 10
20.0903610013
 20
122.6517049101
 11
19.8403610013
 21
122.6517049101
  0
LINE
  5
2DF
100
AcDbEntity
  8
0
100
AcDbLine
 62
2
  6
CONTINUOUS
 10
20.8403610013
 20
119.4017049101
 11
20.8403610013
 21
114.4017049101
  0
LINE
  5
2E0
100
AcDbEntity
  8
0
100
AcDbLine
 62
2
  6
CONTINUOUS
 10
20.8403610013
 20
114.4017049101
 11
20.8403610013
 21
121.0267049101
  0
LINE
  5
2E1
100
AcDbEntity
  8
0
100
AcDbLine
 62
2
  6
CONTINUOUS
 10
20.8403610013
 20
122.6517049101
 11
20.8403610013
 21
128.7318583333
  0
LINE
  5
2E2
100
AcDbEntity
  8
0
100
AcDbLine
 62
2
  6
CONTINUOUS
 10
20.8403610013
 20
128.7318583333
 11
20.8403610013
 21
121.0267049101
  0
INSERT
  5
2E3
100
AcDbEntity
  8
0
100
AcDbBlockReference
 62
2
  6
CONTINUOUS
  2
_OPEN
 10
20.8403610013
 20
119.4017049101
 41
1.5
 42
1.5
 43
1.5
 50
90.0
  0
INSERT
  5
2E4
100
AcDbEntity
  8
0
100
AcDbBlockReference
 62
2
  6
CONTINUOUS
  2
_OPEN
 10
20.8403610013
 20
122.6517049101
 41
1.5
 42
1.5
 43
1.5
 50
270.0
  0
ENDBLK
  5
2E5
100
AcDbEntity
  8
0
  6
BYBLOCK
 62
0
100
AcDbBlockEnd
  0
ENDSEC
  0
SECTION
  2
ENTITIES
  0
DIMENSION
  5
2E6
100
AcDbEntity
  8
0
100
AcDbDimension
 62
2
  6
CONTINUOUS
  2
*D0
 10
266.8403610013
 20
339.8221212777
 11
422.2797875471
 21
530.4162677362
 70
164
 71
1
 42
230.0
  1
 
  3
DIMSTYLE_1
100
AcDbRadialDimension
 15
412.746952439
 25
517.617696518
  0
DIMENSION
  5
2E7
100
AcDbEntity
  8
0
100
AcDbDimension
 62
2
  6
CONTINUOUS
  2
*D1
 10
266.8403610013
 20
339.8221212777
 11
409.0076084536
 21
506.9285489408
 70
164
 71
1
 42
200.0
  1
 
  3
DIMSTYLE_1
100
AcDbRadialDimension
 15
396.9571029813
 25
491.7090313671
  0
DIMENSION
  5
2E8
100
AcDbEntity
  8
0
100
AcDbDimension
 62
2
  6
CONTINUOUS
  2
*D2
 10
266.8403610013
 20
452.3221212777
 11
320.8916110868
 21
478.2209370506
 70
162
 71
2
 42
2.4609142453
  1
 
  3
DIMSTYLE_2
100
AcDb2LineAngularDimension
 13
302.5460937425
 23
408.2292134435
 14
302.9232812276
 24
407.7634256908
 15
266.8403610013
 25
451.7227644312
 16
323.3382241477
 26
472.3290639261
  0
DIMENSION
  5
2E9
100
AcDbEntity
  8
0
100
AcDbDimension
 62
2
  6
CONTINUOUS
  2
*D3
 10
230.757440775
 20
407.7634256907
 11
209.2076533121
 21
468.7768256931
 70
162
 71
2
 42
2.4609142453
  1
 
  3
DIMSTYLE_2
100
AcDb2LineAngularDimension
 13
266.8403610013
 23
451.7227644313
 14
266.8403610013
 24
452.3221212777
 15
231.1346282599
 25
408.2292134434
 16
210.3424978648
 26
472.3290639227
  0
DIMENSION
  5
2EA
100
AcDbEntity
  8
0
100
AcDbDimension
 62
2
  6
CONTINUOUS
  2
*D4
 10
266.8403610013
 20
339.8221212777
 11
361.5636263708
 21
431.9572113552
 70
164
 71
1
 42
112.5
  1
 
  3
DIMSTYLE_3
100
AcDbRadialDimension
 15
347.9278854328
 25
417.8032945285
  0
DIMENSION
  5
2EB
100
AcDbEntity
  8
0
100
AcDbDimension
 62
2
  6
CONTINUOUS
  2
*D5
 10
266.8403610013
 20
339.8221212777
 11
266.0903610013
 21
244.8423351015
 70
164
 71
1
 42
70.7985796737
  1
 
  3
DIMSTYLE_3
100
AcDbRadialDimension
 15
266.8403610013
 25
269.023541604
  0
DIMENSION
  5
2EC
100
AcDbEntity
  8
0
100
AcDbDimension
 62
2
  6
CONTINUOUS
  2
*D6
 10
266.8403610013
 20
339.8221212777
 11
266.0903610013
 21
241.8878023107
 70
164
 71
1
 42
64.3904103511
  1
 
  3
DIMSTYLE_3
100
AcDbRadialDimension
 15
266.8403610013
 25
275.4317109266
  0
DIMENSION
  5
2ED
100
AcDbEntity
  8
0
100
AcDbDimension
 62
2
  6
CONTINUOUS
  2
*D7
 10
321.9058952182
 20
384.32184965
 11
344.253676192
 21
342.4218810768
 70
162
 71
2
 42
0.0733038286
  1
 
  3
DIMSTYLE_2
100
AcDb2LineAngularDimension
 13
316.0105994034
 23
381.5754198446
 14
316.7777981741
 24
380.4715654779
 15
321.0599124736
 25
385.3665513358
 16
347.5536443093
 26
344.8221209862
  0
DIMENSION
  5
2EE
100
AcDbEntity
  8
0
100
AcDbDimension
 62
2
  6
CONTINUOUS
  2
*D8
 10
216.9029238288
 20
380.4715654783
 11
181.4582368076
 21
348.4916010245
 70
162
 71
2
 42
0.0733038286
  1
 
  3
DIMSTYLE_2
100
AcDb2LineAngularDimension
 13
212.6208095264
 23
385.3665513328
 14
211.7748267841
 24
384.3218496498
 15
217.6701225974
 25
381.575419842
 16
186.1270779103
 26
344.8221212752
  0
DIMENSION
  5
2EF
100
AcDbEntity
  8
0
100
AcDbDimension
 62
2
  6
CONTINUOUS
  2
*D9
 10
121.4448908315
 20
216.8221212777
 11
121.4448908315
 21
273.5221212777
 70
160
 71
2
 42
123.0
  1
 
  3
DIMSTYLE_4
100
AcDbAlignedDimension
 13
90.3785460546
 23
339.8221212777
 14
209.3403610013
 24
216.8221212777
 50
270.0
100
AcDbRotatedDimension
  0
DIMENSION
  5
2F0
100
AcDbEntity
  8
0
100
AcDbDimension
 62
2
  6
CONTINUOUS
  2
*D10
 10
324.3403610013
 20
135.1859129728
 11
262.0403610013
 21
135.1859129728
 70
160
 71
2
 42
115.0
  1
 
  3
DIMSTYLE_5
100
AcDbAlignedDimension
 13
209.3403610013
 23
216.8221212777
 14
324.3403610013
 24
216.8221212777
100
AcDbRotatedDimension
  0
DIMENSION
  5
2F1
100
AcDbEntity
  8
0
100
AcDbDimension
 62
2
  6
CONTINUOUS
  2
*D11
 10
504.8403610013
 20
177.0449280623
 11
504.8403610013
 21
252.73352467
 70
160
 71
2
  1
 
  3
DIMSTYLE_6
100
AcDbAlignedDimension
 13
466.8403610013
 23
339.8221212777
 14
350.4441538675
 24
177.0449280623
 50
270.0
100
AcDbRotatedDimension
  0
DIMENSION
  5
2F2
100
AcDbEntity
  8
0
100
AcDbDimension
 62
2
  6
CONTINUOUS
  2
*D12
 10
512.8403610013
 20
339.8221212777
 11
512.8403610013
 21
249.2364469673
 70
160
 71
2
 42
166.7713486209
  1
 
  3
DIMSTYLE_4
100
AcDbAlignedDimension
 13
346.6670688616
 23
173.0507726568
 14
466.8403610013
 24
339.8221212777
 50
90.0
100
AcDbRotatedDimension
  0
DIMENSION
  5
2F3
100
AcDbEntity
  8
0
100
AcDbDimension
 62
2
  6
CONTINUOUS
  2
*D13
 10
124.9262136944
 20
198.8952792854
 11
102.1589901022
 21
192.6052192331
 70
162
 71
2
 42
0.0488692191
  1
 
  3
DIMSTYLE_2
100
AcDb2LineAngularDimension
 13
119.852934871
 23
207.474048329
 14
118.2113959062
 24
205.9960000063
 15
126.4935905668
 25
200.451751822
 16
106.3466601398
 26
188.0507730179
  0
DIMENSION
  5
2F4
100
AcDbEntity
  8
0
100
AcDbDimension
 62
2
  6
CONTINUOUS
  2
*D14
 10
415.4693261064
 20
205.9959999973
 11
424.5827302315
 21
185.1931623069
 70
162
 71
2
 42
0.0488692191
  1
 
  3
DIMSTYLE_2
100
AcDb2LineAngularDimension
 13
407.1871314393
 23
200.4517518186
 14
408.7545083089
 24
198.8952792847
 15
413.8277871445
 25
207.4740483175
 16
427.3340615896
 26
188.0507732762
  0
DIMENSION
  5
2F5
100
AcDbEntity
  8
0
100
AcDbDimension
 62
2
  6
CONTINUOUS
  2
*D15
 10
134.9720253408
 20
221.0873385341
 11
99.7222406745
 21
410.0099863728
 70
162
 71
2
 42
2.3038346126
  1
 
  3
DIMSTYLE_2
100
AcDb2LineAngularDimension
 13
266.8403610013
 23
450.5095318993
 14
266.8403610013
 24
452.3221212777
 15
136.3190417581
 25
222.300197564
 16
101.2520816772
 26
413.5467731837
  0
DIMENSION
  5
2F6
100
AcDbEntity
  8
0
100
AcDbDimension
 62
2
  6
CONTINUOUS
  2
*D16
 10
266.8403610013
 20
452.3221212777
 11
429.6631212493
 21
419.4685354578
 70
162
 71
2
 42
2.3038346126
  1
 
  3
DIMSTYLE_2
100
AcDb2LineAngularDimension
 13
397.3616802445
 23
222.300197564
 14
398.7086966618
 24
221.0873385341
 15
266.8403610013
 25
450.5095318993
 16
432.4286403212
 26
413.5467731818
  0
DIMENSION
  5
2F7
100
AcDbEntity
  8
0
100
AcDbDimension
 62
2
  6
CONTINUOUS
  2
*D17
 10
28.8403610013
 20
44.4017049101
 11
28.8403610013
 21
47.236762203
 70
160
 71
1
 42
5.35
  1
 
  3
DIMSTYLE_6
100
AcDbAlignedDimension
 13
37.8605768107
 23
39.0517049101
 14
66.8403610013
 24
44.4017049101
 50
90.0
100
AcDbRotatedDimension
  0
DIMENSION
  5
2F8
100
AcDbEntity
  8
0
100
AcDbDimension
 62
2
  6
CONTINUOUS
  2
*D18
 10
36.8403610013
 20
39.7517049101
 11
36.8403610013
 21
46.791151302
 70
160
 71
1
 42
4.65
  1
 
  3
DIMSTYLE_6
100
AcDbAlignedDimension
 13
66.8403610013
 23
44.4017049101
 14
66.8403610013
 24
39.7517049101
 50
270.0
100
AcDbRotatedDimension
  0
DIMENSION
  5
2F9
100
AcDbEntity
  8
0
100
AcDbDimension
 62
2
  6
CONTINUOUS
  2
*D19
 10
20.8403610013
 20
119.4017049101
 11
20.8403610013
 21
77.1017049101
 70
160
 71
2
 42
75.0
  1
 
  3
DIMSTYLE_5
100
AcDbAlignedDimension
 13
66.8403610013
 23
44.4017049101
 14
66.8403610013
 24
119.4017049101
 50
90.0
100
AcDbRotatedDimension
  0
DIMENSION
  5
2FA
100
AcDbEntity
  8
0
100
AcDbDimension
 62
2
  6
CONTINUOUS
  2
*D20
 10
20.8403610013
 20
122.6517049101
 11
20.8403610013
 21
126.3318583333
 70
160
 71
1
 42
3.25
  1
 
  3
DIMSTYLE_6
100
AcDbAlignedDimension
 13
66.8403610013
 23
119.4017049101
 14
66.8403610013
 24
122.6517049101
 50
90.0
100
AcDbRotatedDimension
  0
LEADER
  5
2FB
100
AcDbEntity
  8
0
100
AcDbLeader
 62
2
  6
CONTINUOUS
  3
STANDARD
 71
1
 72
0
 73
3
 75
0
 76
3
 10
488.0912975689
 20
39.0517049101
 30
0.0
 10
501.4727636882
 20
59.45282286
 30
0.0
 10
506.4727636882
 20
59.45282286
 30
0.0
1001
ACAD
1000
DSTYLE
1002
{
1070
77
1070
0
1002
}
  0
LINE
  5
2FC
100
AcDbEntity
  8
0
100
AcDbLine
 62
2
  6
CONTINUOUS
 10
25.3403607178
 20
50.5367602081
 11
25.0903616104
 21
50.8367617035
  0
LINE
  5
2FD
100
AcDbEntity
  8
0
100
AcDbLine
 62
2
  6
CONTINUOUS
 10
27.8403614159
 20
51.1367631989
 11
28.0903605232
 21
50.8367617035
  0
LINE
  5
2FE
100
AcDbEntity
  8
0
100
AcDbLine
 62
2
  6
CONTINUOUS
 10
33.3403610268
 20
47.6911540146
 11
33.0903619194
 21
47.9911490936
  0
LINE
  5
2FF
100
AcDbEntity
  8
0
100
AcDbLine
 62
2
  6
CONTINUOUS
 10
35.8403617249
 20
48.291150589
 11
36.0903608322
 21
47.9911490936
  0
LINE
  5
300
100
AcDbEntity
  8
0
100
AcDbLine
 62
2
  6
CONTINUOUS
 10
33.3403610268
 20
52.3411451111
 11
33.0903619194
 21
52.6411466064
  0
LINE
  5
301
100
AcDbEntity
  8
0
100
AcDbLine
 62
2
  6
CONTINUOUS
 10
34.090361557
 20
53.2411495972
 11
34.3403606644
 21
52.9411481018
  0
LINE
  5
302
100
AcDbEntity
  8
0
100
AcDbLine
 62
2
  6
CONTINUOUS
 10
35.8403617249
 20
53.2411495972
 11
36.0903608322
 21
52.9411481018
  0
LINE
  5
303
100
AcDbEntity
  8
0
100
AcDbLine
 62
2
  6
CONTINUOUS
 10
18.3403616505
 20
81.4517102661
 11
18.090360939
 21
81.7516989288
  0
LINE
  5
304
100
AcDbEntity
  8
0
100
AcDbLine
 62
2
  6
CONTINUOUS
 10
17.3403604088
 20
84.001710144
 11
17.0903613014
 21
84.3016988068
  0
LINE
  5
305
100
AcDbEntity
  8
0
100
AcDbLine
 62
2
  6
CONTINUOUS
 10
19.8403611069
 20
82.3517019196
 11
20.0903602142
 21
82.0517004242
  0
LINE
  5
306
100
AcDbEntity
  8
0
100
AcDbLine
 62
2
  6
CONTINUOUS
 10
19.8403611069
 20
84.6017003021
 11
20.0903602142
 21
84.3016988068
  0
LINE
  5
307
100
AcDbEntity
  8
0
100
AcDbLine
 62
2
  6
CONTINUOUS
 10
34.5903597717
 20
48.4411513367
 11
34.8403620872
 21
47.9911490936
  0
LINE
  5
308
100
AcDbEntity
  8
0
100
AcDbLine
 62
7
  6
CONTINUOUS
 10
0.0
 20
0.0
 11
0.0
 21
594.0
  0
LINE
  5
309
100
AcDbEntity
  8
0
100
AcDbLine
 62
7
  6
CONTINUOUS
 10
0.0
 20
0.0
 11
0.0
 21
594.0
  0
LINE
  5
30A
100
AcDbEntity
  8
0
100
AcDbLine
 62
2
  6
CONTINUOUS
 10
128.023129364
 20
586.7425683594
 11
128.2931281433
 21
587.04259552
  0
LINE
  5
30B
100
AcDbEntity
  8
0
100
AcDbLine
 62
2
  6
CONTINUOUS
 10
128.8331257019
 20
585.5425623779
 11
128.2931281433
 21
584.9426107178
  0
LINE
  5
30C
100
AcDbEntity
  8
0
100
AcDbLine
 62
2
  6
CONTINUOUS
 10
25.5903614292
 20
50.3867594604
 11
25.3403607178
 21
50.5367602081
  0
LINE
  5
30D
100
AcDbEntity
  8
0
100
AcDbLine
 62
2
  6
CONTINUOUS
 10
33.5903601341
 20
47.5411532669
 11
33.3403610268
 21
47.6911540146
  0
LINE
  5
30E
100
AcDbEntity
  8
0
100
AcDbLine
 62
2
  6
CONTINUOUS
 10
27.5903623085
 20
51.2867639465
 11
27.8403614159
 21
51.1367631989
  0
LINE
  5
30F
100
AcDbEntity
  8
0
100
AcDbLine
 62
2
  6
CONTINUOUS
 10
35.5903594093
 20
48.4411513367
 11
35.8403617249
 21
48.291150589
  0
LINE
  5
310
100
AcDbEntity
  8
0
100
AcDbLine
 62
2
  6
CONTINUOUS
 10
33.8403624496
 20
53.3911503448
 11
34.090361557
 21
53.2411495972
  0
LINE
  5
311
100
AcDbEntity
  8
0
100
AcDbLine
 62
2
  6
CONTINUOUS
 10
35.340360302
 20
53.5411510925
 11
35.8403617249
 21
53.2411495972
  0
LINE
  5
312
100
AcDbEntity
  8
0
100
AcDbLine
 62
2
  6
CONTINUOUS
 10
17.3403604088
 20
127.2318640289
 11
17.0903613014
 21
127.5318526917
  0
LINE
  5
313
100
AcDbEntity
  8
0
100
AcDbLine
 62
2
  6
CONTINUOUS
 10
19.8403611069
 20
127.831854187
 11
20.0903602142
 21
127.5318526917
  0
LINE
  5
314
100
AcDbEntity
  8
0
100
AcDbLine
 62
2
  6
CONTINUOUS
 10
18.3403616505
 20
131.8818615417
 11
18.090360939
 21
132.1818630371
  0
LINE
  5
315
100
AcDbEntity
  8
0
100
AcDbLine
 62
2
  6
CONTINUOUS
 10
19.8403611069
 20
132.7818531952
 11
20.0903602142
 21
132.4818645325
  0
LINE
  5
316
100
AcDbEntity
  8
0
100
AcDbLine
 62
2
  6
CONTINUOUS
 10
18.5903607578
 20
127.0818632813
 11
18.3403616505
 21
127.5318526917
  0
LINE
  5
317
100
AcDbEntity
  8
0
100
AcDbLine
 62
7
  6
CONTINUOUS
 10
14.3042745037
 20
297.3014900818
 11
14.3042745037
 21
299.4015005493
  0
LINE
  5
318
100
AcDbEntity
  8
0
100
AcDbLine
 62
2
  6
CONTINUOUS
 10
17.0903613014
 20
132.9318539429
 11
17.0903613014
 21
132.0318622894
  0
LINE
  5
319
100
AcDbEntity
  8
0
100
AcDbLine
 62
2
  6
CONTINUOUS
 10
17.0903613014
 20
82.5017026672
 11
17.0903613014
 21
81.6017110138
  0
LINE
  5
31A
100
AcDbEntity
  8
0
100
AcDbLine
 62
2
  6
CONTINUOUS
 10
18.090360939
 20
81.7516989288
 11
18.090360939
 21
82.0517004242
  0
LINE
  5
31B
100
AcDbEntity
  8
0
100
AcDbLine
 62
2
  6
CONTINUOUS
 10
18.090360939
 20
132.1818630371
 11
18.090360939
 21
132.4818645325
  0
LINE
  5
31C
100
AcDbEntity
  8
0
100
AcDbLine
 62
2
  6
CONTINUOUS
 10
20.0903602142
 20
132.4818645325
 11
20.0903602142
 21
132.1818630371
  0
LINE
  5
31D
100
AcDbEntity
  8
0
100
AcDbLine
 62
2
  6
CONTINUOUS
 10
20.0903602142
 20
129.9318646545
 11
20.0903602142
 21
129.7818639069
  0
LINE
  5
31E
100
AcDbEntity
  8
0
100
AcDbLine
 62
2
  6
CONTINUOUS
 10
20.0903602142
 20
82.0517004242
 11
20.0903602142
 21
81.7516989288
  0
LINE
  5
31F
100
AcDbEntity
  8
0
100
AcDbLine
 62
2
  6
CONTINUOUS
 10
25.0903616104
 20
56.2367629547
 11
25.0903616104
 21
55.0367569733
  0
LINE
  5
320
100
AcDbEntity
  8
0
100
AcDbLine
 62
2
  6
CONTINUOUS
 10
28.0903605232
 20
53.2367608337
 11
28.0903605232
 21
53.0867600861
  0
LINE
  5
321
100
AcDbEntity
  8
0
100
AcDbLine
 62
2
  6
CONTINUOUS
 10
33.0903619194
 20
52.6411466064
 11
33.0903619194
 21
52.9411481018
  0
LINE
  5
322
100
AcDbEntity
  8
0
100
AcDbLine
 62
2
  6
CONTINUOUS
 10
34.3403606644
 20
52.6411466064
 11
34.3403606644
 21
52.9411481018
  0
LINE
  5
323
100
AcDbEntity
  8
0
100
AcDbLine
 62
2
  6
CONTINUOUS
 10
36.0903608322
 20
52.9411481018
 11
36.0903608322
 21
52.6411466064
  0
LINE
  5
324
100
AcDbEntity
  8
0
100
AcDbLine
 62
2
  6
CONTINUOUS
 10
36.0903608322
 20
50.3911482239
 11
36.0903608322
 21
50.2411474762
  0
LINE
  5
325
100
AcDbEntity
  8
0
100
AcDbLine
 62
7
  6
CONTINUOUS
 10
11.4692736864
 20
297.3014900818
 11
12.0598992243
 21
299.4015005493
  0
LINE
  5
326
100
AcDbEntity
  8
0
100
AcDbLine
 62
2
  6
CONTINUOUS
 10
127.8881299744
 20
586.4425925293
 11
128.023129364
 21
586.7425683594
  0
LINE
  5
327
100
AcDbEntity
  8
0
100
AcDbLine
 62
2
  6
CONTINUOUS
 10
128.2931281433
 20
584.9426107178
 11
128.023129364
 21
584.3426077271
  0
LINE
  5
328
100
AcDbEntity
  8
0
100
AcDbLine
 62
2
  6
CONTINUOUS
 10
128.9681250916
 20
585.8425895386
 11
128.8331257019
 21
585.5425623779
  0
LINE
  5
329
100
AcDbEntity
  8
0
100
AcDbLine
 62
2
  6
CONTINUOUS
 10
19.5903603954
 20
82.5017026672
 11
19.8403611069
 21
82.3517019196
  0
LINE
  5
32A
100
AcDbEntity
  8
0
100
AcDbLine
 62
2
  6
CONTINUOUS
 10
17.5903611202
 20
83.8517093964
 11
17.3403604088
 21
84.001710144
  0
LINE
  5
32B
100
AcDbEntity
  8
0
100
AcDbLine
 62
2
  6
CONTINUOUS
 10
19.5903603954
 20
84.7517010498
 11
19.8403611069
 21
84.6017003021
  0
LINE
  5
32C
100
AcDbEntity
  8
0
100
AcDbLine
 62
7
  6
CONTINUOUS
 10
12.0598992243
 20
299.4015005493
 11
12.6505239601
 21
297.3014900818
  0
LINE
  5
32D
100
AcDbEntity
  8
0
100
AcDbLine
 62
2
  6
CONTINUOUS
 10
60.0800026093
 20
587.0999830933
 11
60.0800026093
 21
583.5000164795
  0
LINE
  5
32E
100
AcDbEntity
  8
CRV_Z
100
AcDbLine
 62
2
  6
PHANTOM
 10
66.8403610013
 20
122.6517049101
 11
66.8403610013
 21
119.4017049101
  0
LINE
  5
32F
100
AcDbEntity
  8
CRV_Z
100
AcDbLine
 62
40
  6
CONTINUOUS
 10
66.8403610013
 20
119.4017049101
 11
66.8403610013
 21
44.4017049101
  0
LINE
  5
330
100
AcDbEntity
  8
CRV_Z
100
AcDbLine
 62
2
  6
PHANTOM
 10
66.8403610013
 20
44.4017049101
 11
66.8403610013
 21
39.7517049101
  0
LINE
  5
331
100
AcDbEntity
  8
0
100
AcDbLine
 62
7
  6
CONTINUOUS
 10
14.3042745037
 20
299.4015005493
 11
13.4773984299
 21
297.826499115
  0
LINE
  5
332
100
AcDbEntity
  8
0
100
AcDbLine
 62
2
  6
CONTINUOUS
 10
193.6750007935
 20
586.8000072632
 11
193.9449995728
 21
587.0999830933
  0
LINE
  5
333
100
AcDbEntity
  8
0
100
AcDbLine
 62
2
  6
CONTINUOUS
 10
194.4849971313
 20
585.8999771118
 11
194.2149983521
 21
585.6000012817
  0
LINE
  5
334
100
AcDbEntity
  8
0
100
AcDbLine
 62
2
  6
CONTINUOUS
 10
194.4849971313
 20
583.7999923096
 11
194.2149983521
 21
583.5000164795
  0
LINE
  5
335
100
AcDbEntity
  8
0
100
AcDbLine
 62
2
  6
CONTINUOUS
 10
34.090361557
 20
47.3911525192
 11
33.5903601341
 21
47.5411532669
  0
LINE
  5
336
100
AcDbEntity
  8
0
100
AcDbLine
 62
2
  6
CONTINUOUS
 10
26.090361248
 20
50.2367587128
 11
25.5903614292
 21
50.3867594604
  0
LINE
  5
337
100
AcDbEntity
  8
0
100
AcDbLine
 62
2
  6
CONTINUOUS
 10
34.090361557
 20
48.5911520844
 11
34.5903597717
 21
48.4411513367
  0
LINE
  5
338
100
AcDbEntity
  8
0
100
AcDbLine
 62
2
  6
CONTINUOUS
 10
35.0903611946
 20
48.5911520844
 11
35.5903594093
 21
48.4411513367
  0
LINE
  5
339
100
AcDbEntity
  8
0
100
AcDbLine
 62
2
  6
CONTINUOUS
 10
27.0903608856
 20
51.4367646942
 11
27.5903623085
 21
51.2867639465
  0
LINE
  5
33A
100
AcDbEntity
  8
0
100
AcDbLine
 62
7
  6
CONTINUOUS
 10
207.5748946991
 20
13.3646654358
 11
209.1498961334
 21
12.5377941742
  0
LINE
  5
33B
100
AcDbEntity
  8
0
100
AcDbLine
 62
2
  6
CONTINUOUS
 10
17.5903611202
 20
127.0818632813
 11
17.3403604088
 21
127.2318640289
  0
LINE
  5
33C
100
AcDbEntity
  8
0
100
AcDbLine
 62
2
  6
CONTINUOUS
 10
19.5903603954
 20
127.9818549347
 11
19.8403611069
 21
127.831854187
  0
LWPOLYLINE
  5
33D
100
AcDbEntity
  8
0
100
AcDbPolyline
 62
1
  6
CONTINUOUS
 90
2
 70
0
 43
0.5000000193
 10
94.0
 20
582.4999915527
 10
94.0
 20
586.4999915527
  0
LINE
  5
33E
100
AcDbEntity
  8
0
100
AcDbLine
 62
2
  6
CONTINUOUS
 10
128.023129364
 20
584.3426077271
 11
127.8881299744
 21
583.4425775757
  0
LINE
  5
33F
100
AcDbEntity
  8
0
100
AcDbLine
 62
2
  6
CONTINUOUS
 10
96.4482157974
 20
419.3526160278
 11
96.2448505096
 21
418.8958253174
  0
LINE
  5
340
100
AcDbEntity
  8
0
100
AcDbLine
 62
2
  6
CONTINUOUS
 10
95.3030629425
 20
414.9365960693
 11
95.4250821152
 21
415.2107012939
  0
LINE
  5
341
100
AcDbEntity
  8
0
100
AcDbLine
 62
2
  6
CONTINUOUS
 10
96.2792291565
 20
417.1291298828
 11
96.4012483292
 21
417.4031837769
  0
LINE
  5
342
100
AcDbEntity
  8
0
100
AcDbLine
 62
2
  6
CONTINUOUS
 10
97.1583934326
 20
418.4891332397
 11
97.3617651367
 21
418.9458726196
  0
LINE
  5
343
100
AcDbEntity
  8
0
100
AcDbLine
 62
2
  6
CONTINUOUS
 10
96.4449948044
 20
414.4282181396
 11
96.5670139771
 21
414.7022720337
  0
LINE
  5
344
100
AcDbEntity
  8
0
100
AcDbLine
 62
2
  6
CONTINUOUS
 10
98.1657173004
 20
413.9904710693
 11
98.0436981277
 21
413.7164171753
  0
LINE
  5
345
100
AcDbEntity
  8
0
100
AcDbLine
 62
2
  6
CONTINUOUS
 10
98.8368323746
 20
415.4978444824
 11
99.3249154816
 21
416.5940600586
  0
LINE
  5
346
100
AcDbEntity
  8
0
100
AcDbLine
 62
2
  6
CONTINUOUS
 10
194.619996521
 20
586.2000042725
 11
194.4849971313
 21
585.8999771118
  0
LINE
  5
347
100
AcDbEntity
  8
0
100
AcDbLine
 62
2
  6
CONTINUOUS
 10
194.619996521
 20
584.0999681396
 11
194.4849971313
 21
583.7999923096
  0
LINE
  5
348
100
AcDbEntity
  8
0
100
AcDbLine
 62
2
  6
CONTINUOUS
 10
194.7549959106
 20
584.3999953003
 11
194.619996521
 21
584.0999681396
  0
LINE
  5
349
100
AcDbEntity
  8
0
100
AcDbLine
 62
7
  6
CONTINUOUS
 10
209.6749051666
 20
10.5296654205
 11
207.5748946991
 21
11.1202941666
  0
LINE
  5
34A
100
AcDbEntity
  8
0
100
AcDbLine
 62
2
  6
CONTINUOUS
 10
26.090361248
 20
55.9367614594
 11
25.0903616104
 21
56.2367629547
  0
LINE
  5
34B
100
AcDbEntity
  8
0
100
AcDbLine
 62
2
  6
CONTINUOUS
 10
19.0903605766
 20
82.6517034149
 11
19.5903603954
 21
82.5017026672
  0
LINE
  5
34C
100
AcDbEntity
  8
0
100
AcDbLine
 62
2
  6
CONTINUOUS
 10
18.090360939
 20
83.7017086487
 11
17.5903611202
 21
83.8517093964
  0
LINE
  5
34D
100
AcDbEntity
  8
0
100
AcDbLine
 62
2
  6
CONTINUOUS
 10
19.5903603954
 20
132.9318539429
 11
19.8403611069
 21
132.7818531952
  0
LINE
  5
34E
100
AcDbEntity
  8
0
100
AcDbLine
 62
2
  6
CONTINUOUS
 10
108.4730746918
 20
194.5346676331
 11
108.4975593719
 21
194.1449146423
  0
LINE
  5
34F
100
AcDbEntity
  8
0
100
AcDbLine
 62
2
  6
CONTINUOUS
 10
109.3852445221
 20
189.2038086548
 11
109.3607598419
 21
189.5935616455
  0
LINE
  5
350
100
AcDbEntity
  8
0
100
AcDbLine
 62
2
  6
CONTINUOUS
 10
110.6567539825
 20
190.4062271729
 11
110.6322693024
 21
190.7959544983
  0
LINE
  5
351
100
AcDbEntity
  8
0
100
AcDbLine
 62
2
  6
CONTINUOUS
 10
110.8628718719
 20
190.1882519226
 11
110.8873565521
 21
189.7984989319
  0
LINE
  5
352
100
AcDbEntity
  8
0
100
AcDbLine
 62
2
  6
CONTINUOUS
 10
111.7710892487
 20
191.0471149597
 11
111.7955739288
 21
190.657361969
  0
LINE
  5
353
100
AcDbEntity
  8
0
100
AcDbLine
 62
2
  6
CONTINUOUS
 10
117.6948932648
 20
275.7721159363
 11
117.6948932648
 21
276.0721174316
  0
LINE
  5
354
100
AcDbEntity
  8
0
100
AcDbLine
 62
2
  6
CONTINUOUS
 10
119.9448916473
 20
277.7221128235
 11
119.9448916473
 21
279.0721323853
  0
LINE
  5
355
100
AcDbEntity
  8
0
100
AcDbLine
 62
2
  6
CONTINUOUS
 10
120.6948953857
 20
275.3221265259
 11
120.6948953857
 21
276.5221325073
  0
LINE
  5
356
100
AcDbEntity
  8
0
100
AcDbLine
 62
2
  6
CONTINUOUS
 10
128.9681250916
 20
586.4425925293
 11
128.9681250916
 21
585.8425895386
  0
LINE
  5
357
100
AcDbEntity
  8
0
100
AcDbLine
 62
2
  6
CONTINUOUS
 10
112.4925403595
 20
190.2842144165
 11
112.4826592255
 21
189.9307778015
  0
LINE
  5
358
100
AcDbEntity
  8
0
100
AcDbLine
 62
2
  6
CONTINUOUS
 10
113.5429049072
 20
189.9011600647
 11
113.5527860413
 21
190.2545966797
  0
LINE
  5
359
100
AcDbEntity
  8
0
100
AcDbLine
 62
7
  6
CONTINUOUS
 10
0.0
 20
0.0
 11
841.0
 21
0.0
  0
LINE
  5
35A
100
AcDbEntity
  8
0
100
AcDbLine
 62
7
  6
CONTINUOUS
 10
841.0
 20
0.0
 11
0.0
 21
0.0
  0
LINE
  5
35B
100
AcDbEntity
  8
0
100
AcDbLine
 62
2
  6
CONTINUOUS
 10
26.8403617783
 20
55.7867607117
 11
26.090361248
 21
55.9367614594
  0
LINE
  5
35C
100
AcDbEntity
  8
0
100
AcDbLine
 62
2
  6
CONTINUOUS
 10
19.0903605766
 20
84.9017017975
 11
19.5903603954
 21
84.7517010498
  0
LINE
  5
35D
100
AcDbEntity
  8
0
100
AcDbLine
 62
2
  6
CONTINUOUS
 10
105.7780338821
 20
193.0183370361
 11
106.6025375214
 21
192.1464360352
  0
LINE
  5
35E
100
AcDbEntity
  8
0
100
AcDbLine
 62
2
  6
CONTINUOUS
 10
109.5913752441
 20
188.9858334045
 11
109.3852445221
 21
189.2038086548
  0
LINE
  5
35F
100
AcDbEntity
  8
0
100
AcDbLine
 62
2
  6
CONTINUOUS
 10
107.8392961884
 20
190.838610199
 11
107.7362372437
 21
190.9475849915
  0
LINE
  5
360
100
AcDbEntity
  8
0
100
AcDbLine
 62
2
  6
CONTINUOUS
 10
110.6567539825
 20
190.4062271729
 11
110.8628718719
 21
190.1882519226
  0
LINE
  5
361
100
AcDbEntity
  8
0
100
AcDbLine
 62
2
  6
CONTINUOUS
 10
112.4826592255
 20
189.9307778015
 11
112.8262018738
 21
189.5675113831
  0
LINE
  5
362
100
AcDbEntity
  8
0
100
AcDbLine
 62
2
  6
CONTINUOUS
 10
111.5649713593
 20
191.26509021
 11
111.7710892487
 21
191.0471149597
  0
LINE
  5
363
100
AcDbEntity
  8
0
100
AcDbLine
 62
2
  6
CONTINUOUS
 10
108.2669439697
 20
194.7526428833
 11
108.4730746918
 21
194.5346676331
  0
LINE
  5
364
100
AcDbEntity
  8
0
100
AcDbLine
 62
2
  6
CONTINUOUS
 10
113.5527860413
 20
190.2545966797
 11
113.2092433929
 21
190.6178630981
  0
LINE
  5
365
100
AcDbEntity
  8
0
100
AcDbLine
 62
2
  6
CONTINUOUS
 10
108.4975593719
 20
194.1449146423
 11
108.4189722748
 21
193.8641621094
  0
LINE
  5
366
100
AcDbEntity
  8
0
100
AcDbLine
 62
2
  6
CONTINUOUS
 10
107.9178832855
 20
191.1193627319
 11
107.8392961884
 21
190.838610199
  0
LINE
  5
367
100
AcDbEntity
  8
0
100
AcDbLine
 62
2
  6
CONTINUOUS
 10
109.3607598419
 20
189.5935616455
 11
109.5179212036
 21
190.1550667114
  0
LINE
  5
368
100
AcDbEntity
  8
0
100
AcDbLine
 62
2
  6
CONTINUOUS
 10
110.6322693024
 20
190.7959544983
 11
110.7108435669
 21
191.0767326965
  0
LINE
  5
369
100
AcDbEntity
  8
0
100
AcDbLine
 62
2
  6
CONTINUOUS
 10
110.8873565521
 20
189.7984989319
 11
110.7301951904
 21
189.236993866
  0
LINE
  5
36A
100
AcDbEntity
  8
0
100
AcDbLine
 62
2
  6
CONTINUOUS
 10
111.7955739288
 20
190.657361969
 11
111.7169996643
 21
190.376609436
  0
LINE
  5
36B
100
AcDbEntity
  8
0
100
AcDbLine
 62
2
  6
CONTINUOUS
 10
205.0979253845
 20
477.7401087036
 11
204.9310112152
 21
477.2687914429
  0
LINE
  5
36C
100
AcDbEntity
  8
0
100
AcDbLine
 62
2
  6
CONTINUOUS
 10
205.8736585693
 20
476.9349887695
 11
206.040559906
 21
477.4063060303
  0
LINE
  5
36D
100
AcDbEntity
  8
0
100
AcDbLine
 62
2
  6
CONTINUOUS
 10
206.2734980164
 20
472.0725982056
 11
206.7241418915
 21
473.3451856079
  0
LINE
  5
36E
100
AcDbEntity
  8
0
100
AcDbLine
 62
2
  6
CONTINUOUS
 10
18.3403616505
 20
127.5318526917
 11
18.5903607578
 21
127.9818549347
  0
LINE
  5
36F
100
AcDbEntity
  8
0
100
AcDbLine
 62
2
  6
CONTINUOUS
 10
326.6749878845
 20
585.6000012817
 11
326.9450123291
 21
585.8999771118
  0
LINE
  5
370
100
AcDbEntity
  8
0
100
AcDbLine
 62
2
  6
CONTINUOUS
 10
327.4850098877
 20
583.7999923096
 11
327.2150111084
 21
583.5000164795
  0
LINE
  5
371
100
AcDbEntity
  8
0
100
AcDbLine
 62
7
  6
CONTINUOUS
 10
209.6749051666
 20
13.3646654358
 11
207.5748946991
 21
13.3646654358
  0
LWPOLYLINE
  5
372
100
AcDbEntity
  8
0
100
AcDbPolyline
 62
1
  6
CONTINUOUS
 90
2
 70
0
 43
0.5000000193
 10
27.0
 20
17.0
 10
829.5
 20
17.0
  0
LINE
  5
373
100
AcDbEntity
  8
0
100
AcDbLine
 62
2
  6
CONTINUOUS
 10
28.0903605232
 20
55.636759964
 11
26.8403617783
 21
55.7867607117
  0
LINE
  5
374
100
AcDbEntity
  8
0
100
AcDbLine
 62
2
  6
CONTINUOUS
 10
17.0903613014
 20
81.6017110138
 11
18.3403616505
 21
81.4517102661
  0
LINE
  5
375
100
AcDbEntity
  8
0
100
AcDbLine
 62
2
  6
CONTINUOUS
 10
18.090360939
 20
126.9318625336
 11
17.5903611202
 21
127.0818632813
  0
LINE
  5
376
100
AcDbEntity
  8
0
100
AcDbLine
 62
2
  6
CONTINUOUS
 10
19.0903605766
 20
126.9318625336
 11
18.5903607578
 21
127.0818632813
  0
LINE
  5
377
100
AcDbEntity
  8
0
100
AcDbLine
 62
2
  6
CONTINUOUS
 10
19.0903605766
 20
128.1318556824
 11
19.5903603954
 21
127.9818549347
  0
LINE
  5
378
100
AcDbEntity
  8
0
100
AcDbLine
 62
2
  6
CONTINUOUS
 10
19.0903605766
 20
133.0818546906
 11
19.5903603954
 21
132.9318539429
  0
LINE
  5
379
100
AcDbEntity
  8
0
100
AcDbLine
 62
2
  6
CONTINUOUS
 10
119.1948879089
 20
280.2721127014
 11
118.9448952179
 21
280.7221277771
  0
LINE
  5
37A
100
AcDbEntity
  8
0
100
AcDbLine
 62
2
  6
CONTINUOUS
 10
95.4094262924
 20
414.5608563232
 11
95.3030629425
 21
414.9365960693
  0
LINE
  5
37B
100
AcDbEntity
  8
0
100
AcDbLine
 62
2
  6
CONTINUOUS
 10
96.4606506271
 20
415.0780117798
 11
96.5670139771
 21
414.7022720337
  0
LINE
  5
37C
100
AcDbEntity
  8
0
100
AcDbLine
 62
2
  6
CONTINUOUS
 10
96.3855925064
 20
416.7533901367
 11
96.2792291565
 21
417.1291298828
  0
LINE
  5
37D
100
AcDbEntity
  8
0
100
AcDbLine
 62
2
  6
CONTINUOUS
 10
98.0593539505
 20
414.3662108154
 11
98.1657173004
 21
413.9904710693
  0
LINE
  5
37E
100
AcDbEntity
  8
0
100
AcDbLine
 62
2
  6
CONTINUOUS
 10
97.66520578
 20
417.1688084106
 11
97.8779324799
 21
416.4173289185
  0
LWPOLYLINE
  5
37F
100
AcDbEntity
  8
0
100
AcDbPolyline
 62
1
  6
CONTINUOUS
 90
2
 70
0
 43
0.5000000193
 10
160.8
 20
582.5
 10
160.8
 20
586.5
  0
LINE
  5
380
100
AcDbEntity
  8
0
100
AcDbLine
 62
2
  6
CONTINUOUS
 10
187.1588035431
 20
348.11159021
 11
187.128659668
 21
347.821598175
  0
LINE
  5
381
100
AcDbEntity
  8
0
100
AcDbLine
 62
2
  6
CONTINUOUS
 10
191.0589128113
 20
348.309520874
 11
191.0287561035
 21
348.0195545044
  0
LINE
  5
382
100
AcDbEntity
  8
0
100
AcDbLine
 62
2
  6
CONTINUOUS
 10
260.9850035095
 20
587.0999830933
 11
260.040007782
 21
584.3999953003
  0
LINE
  5
383
100
AcDbEntity
  8
0
100
AcDbLine
 62
2
  6
CONTINUOUS
 10
118.9448952179
 20
280.7221277771
 11
119.1948879089
 21
281.1721171875
  0
LINE
  5
384
100
AcDbEntity
  8
0
100
AcDbLine
 62
2
  6
CONTINUOUS
 10
393.1749942627
 20
585.2999741211
 11
393.5799924316
 21
585.6000012817
  0
LINE
  5
385
100
AcDbEntity
  8
0
100
AcDbLine
 62
2
  6
CONTINUOUS
 10
96.4012483292
 20
417.4031837769
 11
96.7516564407
 21
417.5755518188
  0
LINE
  5
386
100
AcDbEntity
  8
0
100
AcDbLine
 62
2
  6
CONTINUOUS
 10
95.4250821152
 20
415.2107012939
 11
95.7754902267
 21
415.3830693359
  0
LINE
  5
387
100
AcDbEntity
  8
0
100
AcDbLine
 62
2
  6
CONTINUOUS
 10
96.5670139771
 20
414.7022720337
 11
96.9174220886
 21
414.8746400757
  0
LINE
  5
388
100
AcDbEntity
  8
0
100
AcDbLine
 62
2
  6
CONTINUOUS
 10
98.0436981277
 20
413.7164171753
 11
97.6932900162
 21
413.5440491333
  0
LINE
  5
389
100
AcDbEntity
  8
0
100
AcDbLine
 62
2
  6
CONTINUOUS
 10
205.4170346832
 20
477.892303833
 11
205.0979253845
 21
477.7401087036
  0
LINE
  5
38A
100
AcDbEntity
  8
0
100
AcDbLine
 62
2
  6
CONTINUOUS
 10
205.5545492706
 20
476.7827936401
 11
205.8736585693
 21
476.9349887695
  0
LINE
  5
38B
100
AcDbEntity
  8
DTM_CRV
100
AcDbLine
 62
7
  6
CONTINUOUS
 10
496.7002512157
 20
39.0517049101
 11
299.2195795571
 21
39.0517049101
  0
LINE
  5
38C
100
AcDbEntity
  8
CRV_XY
100
AcDbLine
 62
40
  6
CONTINUOUS
 10
118.2113959058
 20
39.0517049101
 11
66.8431560567
 21
39.0517049101
  0
LINE
  5
38D
100
AcDbEntity
  8
DTM_CRV
100
AcDbLine
 62
7
  6
CONTINUOUS
 10
234.4611424454
 20
39.0517049101
 11
36.843575315
 21
39.0517049101
  0
LINE
  5
38E
100
AcDbEntity
  8
CRV_XY
100
AcDbLine
 62
2
  6
CONTINUOUS
 10
118.2113959058
 20
39.0517049101
 11
124.926213694
 21
39.0517049101
  0
LINE
  5
38F
100
AcDbEntity
  8
CRV_XY
100
AcDbLine
 62
2
  6
PHANTOM
 10
124.926213694
 20
39.0517049101
 11
262.9446869474
 21
39.0517049101
  0
LINE
  5
390
100
AcDbEntity
  8
5_ALL_CURVE
100
AcDbLine
 62
4
  6
CONTINUOUS
 10
231.8403610013
 20
39.0517049101
 11
302.8403610013
 21
39.0517049101
  0
LINE
  5
391
100
AcDbEntity
  8
DTM_CRV
100
AcDbLine
 62
4
  6
CONTINUOUS
 10
234.4611424454
 20
39.0517049101
 11
299.2195795571
 21
39.0517049101
  0
LINE
  5
392
100
AcDbEntity
  8
CRV_XY
100
AcDbLine
 62
4
  6
CONTINUOUS
 10
262.9446869474
 20
39.0517049101
 11
270.7348173019
 21
39.0517049101
  0
LINE
  5
393
100
AcDbEntity
  8
CRV_XY
100
AcDbLine
 62
2
  6
PHANTOM
 10
270.7348173019
 20
39.0517049101
 11
408.7545082467
 21
39.0517049101
  0
LINE
  5
394
100
AcDbEntity
  8
CRV_XY
100
AcDbLine
 62
2
  6
CONTINUOUS
 10
408.7545082467
 20
39.0517049101
 11
415.4693260968
 21
39.0517049101
  0
LINE
  5
395
100
AcDbEntity
  8
CRV_XY
100
AcDbLine
 62
40
  6
CONTINUOUS
 10
415.4693260968
 20
39.0517049101
 11
466.7964976963
 21
39.0517049101
  0
LINE
  5
396
100
AcDbEntity
  8
CRV_Z
100
AcDbLine
 62
2
  6
PHANTOM
 10
66.8403610013
 20
39.7517049101
 11
466.8403610013
 21
39.7517049101
  0
LINE
  5
397
100
AcDbEntity
  8
CRV_Z
100
AcDbLine
 62
40
  6
CONTINUOUS
 10
66.8403610013
 20
44.4017049101
 11
466.8403610013
 21
44.4017049101
  0
LINE
  5
398
100
AcDbEntity
  8
0
100
AcDbLine
 62
2
  6
CONTINUOUS
 10
25.0903616104
 20
48.4367625732
 11
28.0903605232
 21
48.4367625732
  0
LINE
  5
399
100
AcDbEntity
  8
0
100
AcDbLine
 62
2
  6
CONTINUOUS
 10
34.090361557
 20
48.5911520844
 11
35.0903611946
 21
48.5911520844
  0
LINE
  5
39A
100
AcDbEntity
  8
0
100
AcDbLine
 62
2
  6
CONTINUOUS
 10
27.0903608856
 20
50.2367587128
 11
26.090361248
 21
50.2367587128
  0
LINE
  5
39B
100
AcDbEntity
  8
0
100
AcDbLine
 62
2
  6
CONTINUOUS
 10
36.0903608322
 20
50.2411474762
 11
35.8403617249
 21
50.2411474762
  0
LINE
  5
39C
100
AcDbEntity
  8
0
100
AcDbLine
 62
2
  6
CONTINUOUS
 10
26.090361248
 20
51.4367646942
 11
27.0903608856
 21
51.4367646942
  0
LINE
  5
39D
100
AcDbEntity
  8
0
100
AcDbLine
 62
2
  6
CONTINUOUS
 10
831.0400222168
 20
52.8000018768
 11
832.120017334
 21
52.8000018768
  0
LINE
  5
39E
100
AcDbEntity
  8
0
100
AcDbLine
 62
2
  6
CONTINUOUS
 10
28.0903605232
 20
53.0867600861
 11
27.8403614159
 21
53.0867600861
  0
LINE
  5
39F
100
AcDbEntity
  8
0
100
AcDbLine
 62
2
  6
CONTINUOUS
 10
33.5903601341
 20
53.3911503448
 11
33.8403624496
 21
53.3911503448
  0
LINE
  5
3A0
100
AcDbEntity
  8
0
100
AcDbLine
 62
2
  6
CONTINUOUS
 10
35.0903611946
 20
53.5411510925
 11
35.340360302
 21
53.5411510925
  0
LINE
  5
3A1
100
AcDbEntity
  8
0
100
AcDbLine
 62
2
  6
CONTINUOUS
 10
544.2727788086
 20
57.9528207855
 11
543.0727728271
 21
57.9528207855
  0
LINE
  5
3A2
100
AcDbEntity
  8
0
100
AcDbLine
 62
2
  6
CONTINUOUS
 10
527.0227826538
 20
57.9528207855
 11
526.7227554932
 21
57.9528207855
  0
LINE
  5
3A3
100
AcDbEntity
  8
0
100
AcDbLine
 62
2
  6
CONTINUOUS
 10
519.6727588501
 20
57.9528207855
 11
519.0727558594
 21
57.9528207855
  0
LINE
  5
3A4
100
AcDbEntity
  8
0
100
AcDbLine
 62
2
  6
CONTINUOUS
 10
515.4727892456
 20
57.9528207855
 11
514.2727832642
 21
57.9528207855
  0
LINE
  5
3A5
100
AcDbEntity
  8
0
100
AcDbLine
 62
2
  6
CONTINUOUS
 10
512.622762207
 20
57.9528207855
 11
512.322786377
 21
57.9528207855
  0
LINE
  5
3A6
100
AcDbEntity
  8
0
100
AcDbLine
 62
2
  6
CONTINUOUS
 10
506.9227594604
 20
57.9528207855
 11
507.9727775269
 21
57.9528207855
  0
LINE
  5
3A7
100
AcDbEntity
  8
0
100
AcDbLine
 62
2
  6
CONTINUOUS
 10
535.872788269
 20
57.9528207855
 11
537.0727429199
 21
57.9528207855
  0
LINE
  5
3A8
100
AcDbEntity
  8
0
100
AcDbLine
 62
2
  6
CONTINUOUS
 10
509.6227472534
 20
58.952817215
 11
510.5227774048
 21
58.952817215
  0
LINE
  5
3A9
100
AcDbEntity
  8
0
100
AcDbLine
 62
2
  6
CONTINUOUS
 10
521.6227557373
 20
58.952817215
 11
522.5227858887
 21
58.952817215
  0
LINE
  5
3AA
100
AcDbEntity
  8
0
100
AcDbLine
 62
2
  6
CONTINUOUS
 10
538.422788147
 20
58.952817215
 11
539.3227669678
 21
58.952817215
  0
LINE
  5
3AB
100
AcDbEntity
  8
0
100
AcDbLine
 62
2
  6
CONTINUOUS
 10
534.2227672119
 20
59.4528282623
 11
533.4727763062
 21
59.4528282623
  0
LINE
  5
3AC
100
AcDbEntity
  8
0
100
AcDbLine
 62
2
  6
CONTINUOUS
 10
514.2727832642
 20
59.4528282623
 11
515.0227741699
 21
59.4528282623
  0
LINE
  5
3AD
100
AcDbEntity
  8
0
100
AcDbLine
 62
2
  6
CONTINUOUS
 10
543.0727728271
 20
59.4528282623
 11
543.8227637329
 21
59.4528282623
  0
LINE
  5
3AE
100
AcDbEntity
  8
0
100
AcDbLine
 62
2
  6
CONTINUOUS
 10
506.9227594604
 20
59.7028209534
 11
507.9727775269
 21
59.7028209534
  0
LINE
  5
3AF
100
AcDbEntity
  8
0
100
AcDbLine
 62
2
  6
CONTINUOUS
 10
512.622762207
 20
60.9528229065
 11
512.322786377
 21
60.9528229065
  0
LINE
  5
3B0
100
AcDbEntity
  8
0
100
AcDbLine
 62
2
  6
CONTINUOUS
 10
507.9727775269
 20
60.9528229065
 11
506.9227594604
 21
60.9528229065
  0
LINE
  5
3B1
100
AcDbEntity
  8
0
100
AcDbLine
 62
2
  6
CONTINUOUS
 10
514.2727832642
 20
60.9528229065
 11
515.4727892456
 21
60.9528229065
  0
LINE
  5
3B2
100
AcDbEntity
  8
0
100
AcDbLine
 62
2
  6
CONTINUOUS
 10
519.0727558594
 20
60.9528229065
 11
519.6727588501
 21
60.9528229065
  0
LINE
  5
3B3
100
AcDbEntity
  8
0
100
AcDbLine
 62
2
  6
CONTINUOUS
 10
523.7227405396
 20
60.9528229065
 11
525.2227736816
 21
60.9528229065
  0
LINE
  5
3B4
100
AcDbEntity
  8
0
100
AcDbLine
 62
2
  6
CONTINUOUS
 10
533.4727763062
 20
60.9528229065
 11
534.2227672119
 21
60.9528229065
  0
LINE
  5
3B5
100
AcDbEntity
  8
0
100
AcDbLine
 62
2
  6
CONTINUOUS
 10
543.0727728271
 20
60.9528229065
 11
544.2727788086
 21
60.9528229065
  0
LINE
  5
3B6
100
AcDbEntity
  8
0
100
AcDbLine
 62
2
  6
CONTINUOUS
 10
117.9448859558
 20
275.4721144409
 11
117.6948932648
 21
275.7721159363
  0
LINE
  5
3B7
100
AcDbEntity
  8
0
100
AcDbLine
 62
2
  6
CONTINUOUS
 10
118.9448952179
 20
276.372118927
 11
119.4448934326
 21
275.7721159363
  0
LINE
  5
3B8
100
AcDbEntity
  8
0
100
AcDbLine
 62
2
  6
CONTINUOUS
 10
117.9448859558
 20
280.4221262817
 11
117.6948932648
 21
280.7221277771
  0
LINE
  5
3B9
100
AcDbEntity
  8
0
100
AcDbLine
 62
2
  6
CONTINUOUS
 10
120.4448898621
 20
281.0221292725
 11
120.6948953857
 21
280.7221277771
  0
LINE
  5
3BA
100
AcDbEntity
  8
0
100
AcDbLine
 62
2
  6
CONTINUOUS
 10
96.2448505096
 20
418.8958253174
 11
96.3715535965
 21
418.5657697754
  0
LINE
  5
3BB
100
AcDbEntity
  8
0
100
AcDbLine
 62
2
  6
CONTINUOUS
 10
97.3617651367
 20
418.9458726196
 11
97.2350620499
 21
419.2759794922
  0
LINE
  5
3BC
100
AcDbEntity
  8
0
100
AcDbLine
 62
2
  6
CONTINUOUS
 10
194.619996521
 20
586.4999801025
 11
194.619996521
 21
586.2000042725
  0
LINE
  5
3BD
100
AcDbEntity
  8
0
100
AcDbLine
 62
2
  6
CONTINUOUS
 10
194.7549959106
 20
584.6999711304
 11
194.7549959106
 21
584.3999953003
  0
LINE
  5
3BE
100
AcDbEntity
  8
0
100
AcDbLine
 62
7
  6
CONTINUOUS
 10
208.9748973999
 20
10.7659143524
 11
208.9748973999
 21
11.4746675644
  0
LINE
  5
3BF
100
AcDbEntity
  8
0
100
AcDbLine
 62
7
  6
CONTINUOUS
 10
209.1498961334
 20
12.5377941742
 11
209.1498961334
 21
13.6009143677
  0
LINE
  5
3C0
100
AcDbEntity
  8
CRV_XY
100
AcDbLine
 62
40
  6
CONTINUOUS
 10
209.3403610013
 20
216.8221212777
 11
209.3403610013
 21
298.5160819636
  0
LINE
  5
3C1
100
AcDbEntity
  8
0
100
AcDbLine
 62
7
  6
CONTINUOUS
 10
210.0
 20
0.0
 11
210.0
 21
14.0
  0
LINE
  5
3C2
100
AcDbEntity
  8
DTM_CRV
100
AcDbLine
 62
4
  6
CONTINUOUS
 10
237.2647116595
 20
512.8918705261
 11
243.4019337705
 21
544.38909049
  0
LINE
  5
3C3
100
AcDbEntity
  8
0
100
AcDbLine
 62
2
  6
CONTINUOUS
 10
327.6200092773
 20
584.0999681396
 11
327.4850098877
 21
583.7999923096
  0
LINE
  5
3C4
100
AcDbEntity
  8
0
100
AcDbLine
 62
2
  6
CONTINUOUS
 10
34.8403620872
 20
47.9911490936
 11
34.5903597717
 21
47.5411532669
  0
LINE
  5
3C5
100
AcDbEntity
  8
CRV_XY
100
AcDbLine
 62
2
  6
CONTINUOUS
 10
266.8403610013
 20
452.3221212777
 11
216.9029238289
 21
380.4715654785
  0
LINE
  5
3C6
100
AcDbEntity
  8
0
100
AcDbLine
 62
2
  6
CONTINUOUS
 10
185.5692627258
 20
348.9924227295
 11
187.3705292969
 21
351.3914594116
  0
LINE
  5
3C7
100
AcDbEntity
  8
0
100
AcDbLine
 62
2
  6
CONTINUOUS
 10
187.0087001343
 20
347.9116576538
 11
187.1588035431
 21
348.11159021
  0
LINE
  5
3C8
100
AcDbEntity
  8
0
100
AcDbLine
 62
2
  6
CONTINUOUS
 10
191.0287561035
 20
348.0195545044
 11
190.7285492859
 21
347.6197150574
  0
LINE
  5
3C9
100
AcDbEntity
  8
0
100
AcDbLine
 62
2
  6
CONTINUOUS
 10
192.1089950409
 20
348.4589698181
 11
191.8087753906
 21
348.0591303711
  0
LINE
  5
3CA
100
AcDbEntity
  8
0
100
AcDbLine
 62
2
  6
CONTINUOUS
 10
192.6084671173
 20
347.4587167358
 11
192.9086739349
 21
347.8585561829
  0
LINE
  5
3CB
100
AcDbEntity
  8
CRV_XY
100
AcDbLine
 62
2
  6
CONTINUOUS
 10
266.8403610013
 20
452.3221212777
 11
211.7748267844
 21
384.3218496502
  0
LINE
  5
3CC
100
AcDbEntity
  8
0
100
AcDbLine
 62
2
  6
CONTINUOUS
 10
117.6948932648
 20
280.7221277771
 11
117.9448859558
 21
281.0221292725
  0
LINE
  5
3CD
100
AcDbEntity
  8
0
100
AcDbLine
 62
2
  6
CONTINUOUS
 10
120.6948953857
 20
280.7221277771
 11
120.4448898621
 21
280.4221262817
  0
LINE
  5
3CE
100
AcDbEntity
  8
0
100
AcDbLine
 62
2
  6
CONTINUOUS
 10
117.6948932648
 20
276.0721174316
 11
117.9448859558
 21
276.372118927
  0
LINE
  5
3CF
100
AcDbEntity
  8
0
100
AcDbLine
 62
2
  6
CONTINUOUS
 10
18.090360939
 20
132.4818645325
 11
18.3403616505
 21
132.7818531952
  0
LINE
  5
3D0
100
AcDbEntity
  8
0
100
AcDbLine
 62
2
  6
CONTINUOUS
 10
20.0903602142
 20
132.1818630371
 11
19.8403611069
 21
131.8818615417
  0
LINE
  5
3D1
100
AcDbEntity
  8
0
100
AcDbLine
 62
2
  6
CONTINUOUS
 10
393.3099936523
 20
586.8000072632
 11
393.5799924316
 21
587.0999830933
  0
LINE
  5
3D2
100
AcDbEntity
  8
0
100
AcDbLine
 62
2
  6
CONTINUOUS
 10
393.8499912109
 20
583.7999923096
 11
393.5799924316
 21
583.5000164795
  0
LINE
  5
3D3
100
AcDbEntity
  8
0
100
AcDbLine
 62
2
  6
CONTINUOUS
 10
418.6432450867
 20
528.7435454102
 11
419.121953949
 21
528.9328012085
  0
LINE
  5
3D4
100
AcDbEntity
  8
0
100
AcDbLine
 62
2
  6
CONTINUOUS
 10
96.828325058
 20
418.3623980713
 11
97.1583934326
 21
418.4891332397
  0
LINE
  5
3D5
100
AcDbEntity
  8
0
100
AcDbLine
 62
2
  6
CONTINUOUS
 10
96.7782905884
 20
419.4792998657
 11
96.4482157974
 21
419.3526160278
  0
LINE
  5
3D6
100
AcDbEntity
  8
0
100
AcDbLine
 62
7
  6
CONTINUOUS
 10
207.5748946991
 20
11.1202941666
 11
209.6749051666
 21
11.7109164963
  0
LINE
  5
3D7
100
AcDbEntity
  8
0
100
AcDbLine
 62
2
  6
CONTINUOUS
 10
17.0903613014
 20
79.5017005463
 11
20.0903602142
 21
79.5017005463
  0
LINE
  5
3D8
100
AcDbEntity
  8
0
100
AcDbLine
 62
2
  6
CONTINUOUS
 10
19.0903605766
 20
83.7017086487
 11
18.090360939
 21
83.7017086487
  0
LINE
  5
3D9
100
AcDbEntity
  8
0
100
AcDbLine
 62
2
  6
CONTINUOUS
 10
18.090360939
 20
84.9017017975
 11
19.0903605766
 21
84.9017017975
  0
LWPOLYLINE
  5
3DA
100
AcDbEntity
  8
0
100
AcDbPolyline
 62
1
  6
CONTINUOUS
 90
2
 70
0
 43
0.5000000193
 10
833.3
 20
89.0000015527
 10
829.5
 20
89.0000015527
  0
LINE
  5
3DB
100
AcDbEntity
  8
0
100
AcDbLine
 62
2
  6
CONTINUOUS
 10
17.0903613014
 20
132.0318622894
 11
18.3403616505
 21
131.8818615417
  0
LINE
  5
3DC
100
AcDbEntity
  8
0
100
AcDbLine
 62
2
  6
CONTINUOUS
 10
266.6903703003
 20
135.9359111786
 11
266.3903688049
 21
136.1859167023
  0
LINE
  5
3DD
100
AcDbEntity
  8
0
100
AcDbLine
 62
2
  6
CONTINUOUS
 10
264.5903598328
 20
138.9359132996
 11
264.8903613281
 21
138.6859077759
  0
LINE
  5
3DE
100
AcDbEntity
  8
0
100
AcDbLine
 62
2
  6
CONTINUOUS
 10
266.9903717957
 20
137.6859113464
 11
267.290373291
 21
137.4359186554
  0
LINE
  5
3DF
100
AcDbEntity
  8
0
100
AcDbLine
 62
2
  6
CONTINUOUS
 10
269.2403701782
 20
135.9359111786
 11
268.9403686829
 21
136.1859167023
  0
LINE
  5
3E0
100
AcDbEntity
  8
0
100
AcDbLine
 62
2
  6
CONTINUOUS
 10
266.9903717957
 20
138.9359132996
 11
267.290373291
 21
138.6859077759
  0
LINE
  5
3E1
100
AcDbEntity
  8
0
100
AcDbLine
 62
2
  6
CONTINUOUS
 10
269.2403701782
 20
138.9359132996
 11
269.5403716736
 21
138.6859077759
  0
LINE
  5
3E2
100
AcDbEntity
  8
0
100
AcDbLine
 62
2
  6
CONTINUOUS
 10
266.3903688049
 20
136.1859167023
 11
266.2403552246
 21
136.4359093933
  0
LINE
  5
3E3
100
AcDbEntity
  8
0
100
AcDbLine
 62
2
  6
CONTINUOUS
 10
264.8903613281
 20
138.6859077759
 11
265.0403492432
 21
138.4359150848
  0
LINE
  5
3E4
100
AcDbEntity
  8
0
100
AcDbLine
 62
2
  6
CONTINUOUS
 10
267.290373291
 20
137.4359186554
 11
267.5903491211
 21
136.935907608
  0
LINE
  5
3E5
100
AcDbEntity
  8
0
100
AcDbLine
 62
2
  6
CONTINUOUS
 10
267.290373291
 20
138.6859077759
 11
267.4403612061
 21
138.4359150848
  0
LINE
  5
3E6
100
AcDbEntity
  8
0
100
AcDbLine
 62
2
  6
CONTINUOUS
 10
268.9403686829
 20
136.1859167023
 11
268.7903551025
 21
136.4359093933
  0
LINE
  5
3E7
100
AcDbEntity
  8
0
100
AcDbLine
 62
2
  6
CONTINUOUS
 10
269.5403716736
 20
138.6859077759
 11
269.6903595886
 21
138.4359150848
  0
LINE
  5
3E8
100
AcDbEntity
  8
0
100
AcDbLine
 62
2
  6
CONTINUOUS
 10
190.9691099854
 20
348.6895723877
 11
191.0589128113
 21
348.309520874
  0
LINE
  5
3E9
100
AcDbEntity
  8
0
100
AcDbLine
 62
2
  6
CONTINUOUS
 10
191.8087753906
 20
348.0591303711
 11
191.8585917053
 21
347.7091072388
  0
LINE
  5
3EA
100
AcDbEntity
  8
0
100
AcDbLine
 62
2
  6
CONTINUOUS
 10
192.9086739349
 20
347.8585561829
 11
192.8588576202
 21
348.2085793152
  0
LWPOLYLINE
  5
3EB
100
AcDbEntity
  8
0
100
AcDbPolyline
 62
1
  6
CONTINUOUS
 90
2
 70
0
 43
0.5000000193
 10
227.6
 20
582.4999915527
 10
227.6
 20
586.4999915527
  0
LINE
  5
3EC
100
AcDbEntity
  8
5_ALL_CURVE
100
AcDbLine
 62
4
  6
CONTINUOUS
 10
231.8403610013
 20
271.3221212777
 11
231.8403610013
 21
350.0920033524
  0
LINE
  5
3ED
100
AcDbEntity
  8
DTM_CRV
100
AcDbLine
 62
4
  6
CONTINUOUS
 10
234.4611424454
 20
473.3070352499
 11
234.4611424454
 21
483.8445332563
  0
LINE
  5
3EE
100
AcDbEntity
  8
5_ALL_CURVE
100
AcDbLine
 62
4
  6
CONTINUOUS
 10
244.5903610013
 20
326.3708202254
 11
244.5903610013
 21
267.3221212777
  0
LINE
  5
3EF
100
AcDbEntity
  8
DTM_CRV
100
AcDbLine
 62
40
  6
CONTINUOUS
 10
245.0903610013
 20
339.8221212777
 11
245.0903610013
 21
452.3221212777
  0
LINE
  5
3F0
100
AcDbEntity
  8
0
100
AcDbLine
 62
2
  6
CONTINUOUS
 10
17.0903613014
 20
127.5318526917
 11
17.3403604088
 21
127.831854187
  0
LINE
  5
3F1
100
AcDbEntity
  8
0
100
AcDbLine
 62
2
  6
CONTINUOUS
 10
20.0903602142
 20
127.5318526917
 11
19.8403611069
 21
127.2318640289
  0
LINE
  5
3F2
100
AcDbEntity
  8
0
100
AcDbLine
 62
2
  6
CONTINUOUS
 10
17.0903613014
 20
84.3016988068
 11
17.3403604088
 21
84.6017003021
  0
LINE
  5
3F3
100
AcDbEntity
  8
0
100
AcDbLine
 62
2
  6
CONTINUOUS
 10
189.1383540039
 20
347.2505456238
 11
188.5680842438
 21
346.7408330994
  0
LINE
  5
3F4
100
AcDbEntity
  8
0
100
AcDbLine
 62
2
  6
CONTINUOUS
 10
327.8591327209
 20
477.5368909912
 11
325.0312034912
 21
476.5354829712
  0
LINE
  5
3F5
100
AcDbEntity
  8
0
100
AcDbLine
 62
2
  6
CONTINUOUS
 10
325.982564209
 20
473.8489437866
 11
328.8104677734
 21
474.8503518066
  0
LINE
  5
3F6
100
AcDbEntity
  8
0
100
AcDbLine
 62
2
  6
CONTINUOUS
 10
329.461390686
 20
473.0122042236
 11
326.6334871216
 21
472.0107962036
  0
LINE
  5
3F7
100
AcDbEntity
  8
0
100
AcDbLine
 62
2
  6
CONTINUOUS
 10
330.333291687
 20
472.0479595337
 11
329.8619744263
 21
471.8810325317
  0
LINE
  5
3F8
100
AcDbEntity
  8
0
100
AcDbLine
 62
2
  6
CONTINUOUS
 10
330.1957770996
 20
470.9383980103
 11
330.6670943604
 21
471.1052736816
  0
LINE
  5
3F9
100
AcDbEntity
  8
CRV_Z
100
AcDbLine
 62
40
  6
CONTINUOUS
 10
66.8403610013
 20
119.4017049101
 11
466.8403610013
 21
119.4017049101
  0
LINE
  5
3FA
100
AcDbEntity
  8
0
100
AcDbLine
 62
2
  6
CONTINUOUS
 10
831.715019165
 20
120.9999867859
 11
831.4450203857
 21
120.9999867859
  0
LINE
  5
3FB
100
AcDbEntity
  8
CRV_Z
100
AcDbLine
 62
2
  6
PHANTOM
 10
466.8403610013
 20
122.6517049101
 11
66.8403610013
 21
122.6517049101
  0
LINE
  5
3FC
100
AcDbEntity
  8
0
100
AcDbLine
 62
2
  6
CONTINUOUS
 10
831.5800197754
 20
122.7999957581
 11
832.120017334
 21
122.7999957581
  0
LINE
  5
3FD
100
AcDbEntity
  8
0
100
AcDbLine
 62
2
  6
CONTINUOUS
 10
831.4450203857
 20
124.5999918976
 11
831.715019165
 21
124.5999918976
  0
LINE
  5
3FE
100
AcDbEntity
  8
0
100
AcDbLine
 62
2
  6
CONTINUOUS
 10
118.1948914795
 20
275.3221265259
 11
117.9448859558
 21
275.4721144409
  0
LINE
  5
3FF
100
AcDbEntity
  8
0
100
AcDbLine
 62
2
  6
CONTINUOUS
 10
119.4448934326
 20
275.7721159363
 11
119.9448916473
 21
275.4721144409
  0
LINE
  5
400
100
AcDbEntity
  8
0
100
AcDbLine
 62
2
  6
CONTINUOUS
 10
118.6948896942
 20
276.5221325073
 11
118.9448952179
 21
276.372118927
  0
LINE
  5
401
100
AcDbEntity
  8
0
100
AcDbLine
 62
2
  6
CONTINUOUS
 10
96.2932744827
 20
415.3166989136
 11
96.4606506271
 21
415.0780117798
  0
LINE
  5
402
100
AcDbEntity
  8
0
100
AcDbLine
 62
2
  6
CONTINUOUS
 10
96.5529686508
 20
416.5146516724
 11
96.3855925064
 21
416.7533901367
  0
LINE
  5
403
100
AcDbEntity
  8
0
100
AcDbLine
 62
2
  6
CONTINUOUS
 10
97.7246016617
 20
414.8436364136
 11
98.0593539505
 21
414.3662108154
  0
LINE
  5
404
100
AcDbEntity
  8
0
100
AcDbLine
 62
2
  6
CONTINUOUS
 10
97.8779324799
 20
416.4173289185
 11
98.2126847687
 21
415.9399033203
  0
LINE
  5
405
100
AcDbEntity
  8
0
100
AcDbLine
 62
2
  6
CONTINUOUS
 10
97.4978296356
 20
417.407546875
 11
97.66520578
 21
417.1688084106
  0
LINE
  5
406
100
AcDbEntity
  8
0
100
AcDbLine
 62
2
  6
CONTINUOUS
 10
268.7903551025
 20
136.4359093933
 11
268.6403671875
 21
136.935907608
  0
LINE
  5
407
100
AcDbEntity
  8
0
100
AcDbLine
 62
2
  6
CONTINUOUS
 10
269.6903595886
 20
138.4359150848
 11
269.8403731689
 21
137.9359168701
  0
LINE
  5
408
100
AcDbEntity
  8
0
100
AcDbLine
 62
2
  6
CONTINUOUS
 10
260.9850035095
 20
583.5000164795
 11
260.9850035095
 21
587.0999830933
  0
LINE
  5
409
100
AcDbEntity
  8
0
100
AcDbLine
 62
2
  6
CONTINUOUS
 10
265.0403492432
 20
138.4359150848
 11
265.0403492432
 21
137.9359168701
  0
LINE
  5
40A
100
AcDbEntity
  8
CRV_XY
100
AcDbLine
 62
2
  6
CONTINUOUS
 10
266.8403610013
 20
339.8221212777
 11
266.8403610013
 21
452.3221212777
  0
LINE
  5
40B
100
AcDbEntity
  8
0
100
AcDbLine
 62
2
  6
CONTINUOUS
 10
267.4403612061
 20
138.4359150848
 11
267.4403612061
 21
138.1859095612
  0
LINE
  5
40C
100
AcDbEntity
  8
0
100
AcDbLine
 62
2
  6
CONTINUOUS
 10
267.5903491211
 20
136.935907608
 11
267.5903491211
 21
136.685914917
  0
LINE
  5
40D
100
AcDbEntity
  8
0
100
AcDbLine
 62
2
  6
CONTINUOUS
 10
268.6403671875
 20
136.935907608
 11
268.6403671875
 21
137.9359168701
  0
LINE
  5
40E
100
AcDbEntity
  8
0
100
AcDbLine
 62
2
  6
CONTINUOUS
 10
269.8403731689
 20
137.9359168701
 11
269.8403731689
 21
136.935907608
  0
LINE
  5
40F
100
AcDbEntity
  8
0
100
AcDbLine
 62
2
  6
CONTINUOUS
 10
327.755008667
 20
584.6999711304
 11
327.6200092773
 21
584.0999681396
  0
LINE
  5
410
100
AcDbEntity
  8
0
100
AcDbLine
 62
2
  6
CONTINUOUS
 10
393.1749942627
 20
586.4999801025
 11
393.3099936523
 21
586.8000072632
  0
LINE
  5
411
100
AcDbEntity
  8
0
100
AcDbLine
 62
2
  6
CONTINUOUS
 10
329.8619744263
 20
471.8810325317
 11
329.7097536316
 21
471.5619104004
  0
LINE
  5
412
100
AcDbEntity
  8
0
100
AcDbLine
 62
2
  6
CONTINUOUS
 10
330.6670943604
 20
471.1052736816
 11
330.819315155
 21
471.424395813
  0
LINE
  5
413
100
AcDbEntity
  8
0
100
AcDbLine
 62
2
  6
CONTINUOUS
 10
414.2513248291
 20
525.3621956787
 11
414.7271078491
 21
525.9419230957
  0
LINE
  5
414
100
AcDbEntity
  8
0
100
AcDbLine
 62
2
  6
CONTINUOUS
 10
415.886639679
 20
524.9903570557
 11
415.4108566589
 21
524.4106296387
  0
LINE
  5
415
100
AcDbEntity
  8
0
100
AcDbLine
 62
2
  6
CONTINUOUS
 10
417.5131256714
 20
525.7900872803
 11
418.3695505066
 21
526.8336890259
  0
LINE
  5
416
100
AcDbEntity
  8
0
100
AcDbLine
 62
2
  6
CONTINUOUS
 10
18.090360939
 20
82.0517004242
 11
18.3403616505
 21
82.3517019196
  0
LINE
  5
417
100
AcDbEntity
  8
0
100
AcDbLine
 62
2
  6
CONTINUOUS
 10
20.0903602142
 20
84.3016988068
 11
19.8403611069
 21
84.001710144
  0
LINE
  5
418
100
AcDbEntity
  8
0
100
AcDbLine
 62
2
  6
CONTINUOUS
 10
20.0903602142
 20
81.7516989288
 11
19.8403611069
 21
81.4517102661
  0
LINE
  5
419
100
AcDbEntity
  8
0
100
AcDbLine
 62
2
  6
CONTINUOUS
 10
25.0903616104
 20
50.8367617035
 11
25.3403607178
 21
51.1367631989
  0
LINE
  5
41A
100
AcDbEntity
  8
0
100
AcDbLine
 62
2
  6
CONTINUOUS
 10
28.0903605232
 20
50.8367617035
 11
27.8403614159
 21
50.5367602081
  0
LINE
  5
41B
100
AcDbEntity
  8
0
100
AcDbLine
 62
2
  6
CONTINUOUS
 10
400.8740402527
 20
502.0453885498
 11
401.3619886169
 21
502.6149525146
  0
LINE
  5
41C
100
AcDbEntity
  8
0
100
AcDbLine
 62
2
  6
CONTINUOUS
 10
402.5011422119
 20
501.6391071167
 11
402.0131938477
 21
501.0694918213
  0
LINE
  5
41D
100
AcDbEntity
  8
0
100
AcDbLine
 62
2
  6
CONTINUOUS
 10
404.144182312
 20
502.4042405396
 11
405.0224739685
 21
503.4294659424
  0
LINE
  5
41E
100
AcDbEntity
  8
0
100
AcDbLine
 62
2
  6
CONTINUOUS
 10
187.3705292969
 20
351.3914594116
 11
185.1799203796
 21
350.222611084
  0
LINE
  5
41F
100
AcDbEntity
  8
DTM_CRV
100
AcDbLine
 62
4
  6
CONTINUOUS
 10
286.4055508238
 20
415.3361944581
 11
286.4183838948
 21
415.3411307677
  0
LINE
  5
420
100
AcDbEntity
  8
DTM_CRV
100
AcDbLine
 62
4
  6
CONTINUOUS
 10
286.3926521808
 20
415.3314293362
 11
286.4055508238
 21
415.3361944581
  0
LINE
  5
421
100
AcDbEntity
  8
DTM_CRV
100
AcDbLine
 62
4
  6
CONTINUOUS
 10
286.379690666
 20
415.3268364409
 11
286.3926521808
 21
415.3314293362
  0
LINE
  5
422
100
AcDbEntity
  8
DTM_CRV
100
AcDbLine
 62
4
  6
CONTINUOUS
 10
286.3666689799
 20
415.3224168111
 11
286.379690666
 21
415.3268364409
  0
LINE
  5
423
100
AcDbEntity
  8
DTM_CRV
100
AcDbLine
 62
4
  6
CONTINUOUS
 10
286.3535915942
 20
415.3181720183
 11
286.3666689799
 21
415.3224168111
  0
LINE
  5
424
100
AcDbEntity
  8
DTM_CRV
100
AcDbLine
 62
4
  6
CONTINUOUS
 10
286.340458973
 20
415.3141021913
 11
286.3535915942
 21
415.3181720183
  0
LINE
  5
425
100
AcDbEntity
  8
DTM_CRV
100
AcDbLine
 62
4
  6
CONTINUOUS
 10
286.3272733356
 20
415.3102080409
 11
286.340458973
 21
415.3141021913
  0
LINE
  5
426
100
AcDbEntity
  8
0
100
AcDbLine
 62
2
  6
CONTINUOUS
 10
19.0903605766
 20
126.9318625336
 11
18.090360939
 21
126.9318625336
  0
LINE
  5
427
100
AcDbEntity
  8
0
100
AcDbLine
 62
2
  6
CONTINUOUS
 10
20.0903602142
 20
129.7818639069
 11
19.8403611069
 21
129.7818639069
  0
LINE
  5
428
100
AcDbEntity
  8
0
100
AcDbLine
 62
2
  6
CONTINUOUS
 10
266.9903717957
 20
135.9359111786
 11
266.6903703003
 21
135.9359111786
  0
LINE
  5
429
100
AcDbEntity
  8
0
100
AcDbLine
 62
2
  6
CONTINUOUS
 10
263.840368927
 20
135.9359111786
 11
265.0403492432
 21
135.9359111786
  0
LINE
  5
42A
100
AcDbEntity
  8
0
100
AcDbLine
 62
2
  6
CONTINUOUS
 10
266.6903703003
 20
137.6859113464
 11
266.9903717957
 21
137.6859113464
  0
LINE
  5
42B
100
AcDbEntity
  8
0
100
AcDbLine
 62
2
  6
CONTINUOUS
 10
264.2903583374
 20
138.9359132996
 11
264.5903598328
 21
138.9359132996
  0
LINE
  5
42C
100
AcDbEntity
  8
0
100
AcDbLine
 62
2
  6
CONTINUOUS
 10
266.6903703003
 20
138.9359132996
 11
266.9903717957
 21
138.9359132996
  0
LINE
  5
42D
100
AcDbEntity
  8
0
100
AcDbLine
 62
2
  6
CONTINUOUS
 10
109.9791391754
 20
188.9396358948
 11
109.5913752441
 21
188.9858334045
  0
LINE
  5
42E
100
AcDbEntity
  8
0
100
AcDbLine
 62
2
  6
CONTINUOUS
 10
117.6948932648
 20
278.7721308899
 11
119.9448916473
 21
277.7221128235
  0
LINE
  5
42F
100
AcDbEntity
  8
0
100
AcDbLine
 62
2
  6
CONTINUOUS
 10
120.194897171
 20
281.1721171875
 11
120.4448898621
 21
281.0221292725
  0
LINE
  5
430
100
AcDbEntity
  8
0
100
AcDbLine
 62
2
  6
CONTINUOUS
 10
118.1948914795
 20
280.2721127014
 11
117.9448859558
 21
280.4221262817
  0
LINE
  5
431
100
AcDbEntity
  8
0
100
AcDbLine
 62
2
  6
CONTINUOUS
 10
128.8331257019
 20
586.7425683594
 11
128.9681250916
 21
586.4425925293
  0
LINE
  5
432
100
AcDbEntity
  8
DTM_CRV
100
AcDbLine
 62
40
  6
CONTINUOUS
 10
288.5903610013
 20
339.8221212777
 11
288.5903610013
 21
452.3221212777
  0
LINE
  5
433
100
AcDbEntity
  8
5_ALL_CURVE
100
AcDbLine
 62
4
  6
CONTINUOUS
 10
289.0903610013
 20
326.3708202254
 11
289.0903610013
 21
267.3221212777
  0
LWPOLYLINE
  5
434
100
AcDbEntity
  8
0
100
AcDbPolyline
 62
1
  6
CONTINUOUS
 90
2
 70
0
 43
0.5000000193
 10
294.6
 20
586.4999915527
 10
294.6
 20
582.4999915527
  0
LINE
  5
435
100
AcDbEntity
  8
DTM_CRV
100
AcDbLine
 62
4
  6
CONTINUOUS
 10
299.2195795571
 20
483.8445332563
 11
299.2195795571
 21
473.3070352499
  0
LINE
  5
436
100
AcDbEntity
  8
5_ALL_CURVE
100
AcDbLine
 62
4
  6
CONTINUOUS
 10
301.8403610013
 20
271.3221212777
 11
301.8403610013
 21
298.0900704701
  0
LINE
  5
437
100
AcDbEntity
  8
5_ALL_CURVE
100
AcDbLine
 62
4
  6
CONTINUOUS
 10
301.8403610013
 20
326.5541720853
 11
301.8403610013
 21
350.0920033524
  0
LINE
  5
438
100
AcDbEntity
  8
5_ALL_CURVE
100
AcDbLine
 62
4
  6
CONTINUOUS
 10
302.8403610013
 20
300.7358217812
 11
302.8403610013
 21
323.9084207742
  0
LINE
  5
439
100
AcDbEntity
  8
0
100
AcDbLine
 62
2
  6
CONTINUOUS
 10
326.8099872742
 20
587.0999830933
 11
326.6749878845
 21
585.6000012817
  0
LINE
  5
43A
100
AcDbEntity
  8
0
100
AcDbLine
 62
2
  6
CONTINUOUS
 10
263.990356842
 20
136.685914917
 11
263.840368927
 21
135.9359111786
  0
LINE
  5
43B
100
AcDbEntity
  8
0
100
AcDbLine
 62
2
  6
CONTINUOUS
 10
393.9849906006
 20
584.0999681396
 11
393.8499912109
 21
583.7999923096
  0
LINE
  5
43C
100
AcDbEntity
  8
0
100
AcDbLine
 62
2
  6
CONTINUOUS
 10
33.0903619194
 20
52.9411481018
 11
33.3403610268
 21
53.2411495972
  0
LINE
  5
43D
100
AcDbEntity
  8
0
100
AcDbLine
 62
2
  6
CONTINUOUS
 10
34.3403606644
 20
52.9411481018
 11
34.5903597717
 21
53.2411495972
  0
LINE
  5
43E
100
AcDbEntity
  8
0
100
AcDbLine
 62
2
  6
CONTINUOUS
 10
36.0903608322
 20
52.6411466064
 11
35.8403617249
 21
52.3411451111
  0
LINE
  5
43F
100
AcDbEntity
  8
0
100
AcDbLine
 62
2
  6
CONTINUOUS
 10
33.0903619194
 20
47.9911490936
 11
33.3403610268
 21
48.291150589
  0
LINE
  5
440
100
AcDbEntity
  8
0
100
AcDbLine
 62
2
  6
CONTINUOUS
 10
36.0903608322
 20
47.9911490936
 11
35.8403617249
 21
47.6911540146
  0
LINE
  5
441
100
AcDbEntity
  8
0
100
AcDbLine
 62
2
  6
CONTINUOUS
 10
526.175007019
 20
586.8000072632
 11
526.4450057983
 21
587.0999830933
  0
LINE
  5
442
100
AcDbEntity
  8
0
100
AcDbLine
 62
2
  6
CONTINUOUS
 10
526.175007019
 20
585.2999741211
 11
526.4450057983
 21
585.6000012817
  0
LINE
  5
443
100
AcDbEntity
  8
0
100
AcDbLine
 62
2
  6
CONTINUOUS
 10
526.9850033569
 20
585.8999771118
 11
526.7150045776
 21
585.6000012817
  0
LINE
  5
444
100
AcDbEntity
  8
CRV_XY
100
AcDbLine
 62
2
  6
CONTINUOUS
 10
266.8403610013
 20
339.8221212777
 11
124.926213694
 21
198.895279285
  0
LINE
  5
445
100
AcDbEntity
  8
0
100
AcDbLine
 62
2
  6
CONTINUOUS
 10
356.7812120361
 20
431.5201674805
 11
356.9974420471
 21
431.728107605
  0
LINE
  5
446
100
AcDbEntity
  8
0
100
AcDbLine
 62
2
  6
CONTINUOUS
 10
355.051346283
 20
429.8565951538
 11
355.2675762939
 21
430.0645352783
  0
LINE
  5
447
100
AcDbEntity
  8
0
100
AcDbLine
 62
2
  6
CONTINUOUS
 10
352.9971226807
 20
427.8810356445
 11
353.5377105408
 21
428.4009116211
  0
LINE
  5
448
100
AcDbEntity
  8
0
100
AcDbLine
 62
2
  6
CONTINUOUS
 10
359.0516656494
 20
433.7036671143
 11
358.4029499512
 21
433.0797954102
  0
LINE
  5
449
100
AcDbEntity
  8
0
100
AcDbLine
 62
2
  6
CONTINUOUS
 10
359.2042457581
 20
432.4630073242
 11
359.420475769
 21
432.6709474487
  0
LINE
  5
44A
100
AcDbEntity
  8
0
100
AcDbLine
 62
2
  6
CONTINUOUS
 10
354.5774624939
 20
427.3197359009
 11
354.0368746338
 21
426.7998599243
  0
LINE
  5
44B
100
AcDbEntity
  8
0
100
AcDbLine
 62
2
  6
CONTINUOUS
 10
358.5363580933
 20
429.0459315186
 11
359.4013038025
 21
429.8776920166
  0
LINE
  5
44C
100
AcDbEntity
  8
0
100
AcDbLine
 62
2
  6
CONTINUOUS
 10
360.8068117065
 20
431.2293798218
 11
360.5905816956
 21
431.0214396973
  0
LINE
  5
44D
100
AcDbEntity
  8
0
100
AcDbLine
 62
2
  6
CONTINUOUS
 10
356.8064923401
 20
427.3823078613
 11
357.671412384
 21
428.2141196899
  0
LINE
  5
44E
100
AcDbEntity
  8
0
100
AcDbLine
 62
2
  6
CONTINUOUS
 10
108.4189722748
 20
193.8641621094
 11
108.0556930237
 21
193.5206066284
  0
LINE
  5
44F
100
AcDbEntity
  8
0
100
AcDbLine
 62
2
  6
CONTINUOUS
 10
107.7362372437
 20
190.9475849915
 11
107.9178832855
 21
191.1193627319
  0
LINE
  5
450
100
AcDbEntity
  8
0
100
AcDbLine
 62
2
  6
CONTINUOUS
 10
109.5179212036
 20
190.1550667114
 11
109.6995672455
 21
190.3268444519
  0
LINE
  5
451
100
AcDbEntity
  8
0
100
AcDbLine
 62
2
  6
CONTINUOUS
 10
111.7169996643
 20
190.376609436
 11
111.5353536224
 21
190.2048316956
  0
LINE
  5
452
100
AcDbEntity
  8
0
100
AcDbLine
 62
2
  6
CONTINUOUS
 10
110.7301951904
 20
189.236993866
 11
110.5485491486
 21
189.0652161255
  0
LINE
  5
453
100
AcDbEntity
  8
0
100
AcDbLine
 62
2
  6
CONTINUOUS
 10
112.8558196106
 20
190.6277442322
 11
112.4925403595
 21
190.2842144165
  0
LINE
  5
454
100
AcDbEntity
  8
0
100
AcDbLine
 62
2
  6
CONTINUOUS
 10
113.1796256561
 20
189.557630249
 11
113.5429049072
 21
189.9011600647
  0
LINE
  5
455
100
AcDbEntity
  8
0
100
AcDbLine
 62
2
  6
CONTINUOUS
 10
110.7108435669
 20
191.0767326965
 11
110.8924896088
 21
191.2484847717
  0
LINE
  5
456
100
AcDbEntity
  8
CRV_XY
100
AcDbLine
 62
2
  6
CONTINUOUS
 10
118.2113959058
 20
205.9960000059
 11
266.8403610013
 21
339.8221212777
  0
LINE
  5
457
100
AcDbEntity
  8
0
100
AcDbLine
 62
2
  6
CONTINUOUS
 10
593.4849840698
 20
585.2999741211
 11
593.0799859009
 21
584.999998291
  0
LINE
  5
458
100
AcDbEntity
  8
0
100
AcDbLine
 62
2
  6
CONTINUOUS
 10
117.9448859558
 20
281.0221292725
 11
118.1948914795
 21
281.1721171875
  0
LINE
  5
459
100
AcDbEntity
  8
0
100
AcDbLine
 62
2
  6
CONTINUOUS
 10
120.4448898621
 20
280.4221262817
 11
120.194897171
 21
280.2721127014
  0
LINE
  5
45A
100
AcDbEntity
  8
0
100
AcDbLine
 62
2
  6
CONTINUOUS
 10
117.9448859558
 20
276.372118927
 11
118.1948914795
 21
276.5221325073
  0
LINE
  5
45B
100
AcDbEntity
  8
0
100
AcDbLine
 62
2
  6
CONTINUOUS
 10
190.7285492859
 20
347.6197150574
 11
190.4584863434
 21
347.50984198
  0
LINE
  5
45C
100
AcDbEntity
  8
0
100
AcDbLine
 62
2
  6
CONTINUOUS
 10
190.0691311646
 20
348.7400559998
 11
190.3391941071
 21
348.8499034119
  0
LINE
  5
45D
100
AcDbEntity
  8
0
100
AcDbLine
 62
2
  6
CONTINUOUS
 10
189.6784670563
 20
347.4702661133
 11
189.1383540039
 21
347.2505456238
  0
LINE
  5
45E
100
AcDbEntity
  8
5_ALL_CURVE
100
AcDbLine
 62
4
  6
CONTINUOUS
 10
234.382763607
 20
353.8169744712
 11
240.9883141434
 21
356.4017551159
  0
LWPOLYLINE
  5
45F
100
AcDbEntity
  8
0
100
AcDbPolyline
 62
1
  6
CONTINUOUS
 90
2
 70
0
 43
0.5000000193
 10
829.5
 20
158.9999915527
 10
833.3
 20
158.9999915527
  0
LINE
  5
460
100
AcDbEntity
  8
0
100
AcDbLine
 62
2
  6
CONTINUOUS
 10
112.8262018738
 20
189.5675113831
 11
113.1796256561
 21
189.557630249
  0
LINE
  5
461
100
AcDbEntity
  8
0
100
AcDbLine
 62
2
  6
CONTINUOUS
 10
113.2092433929
 20
190.6178630981
 11
112.8558196106
 21
190.6277442322
  0
LINE
  5
462
100
AcDbEntity
  8
0
100
AcDbLine
 62
2
  6
CONTINUOUS
 10
111.2506486359
 20
190.1420544128
 11
110.8628718719
 21
190.1882519226
  0
LINE
  5
463
100
AcDbEntity
  8
0
100
AcDbLine
 62
2
  6
CONTINUOUS
 10
110.2689772186
 20
190.4524246826
 11
110.6567539825
 21
190.4062271729
  0
LINE
  5
464
100
AcDbEntity
  8
0
100
AcDbLine
 62
2
  6
CONTINUOUS
 10
111.1771945953
 20
191.3112877197
 11
111.5649713593
 21
191.26509021
  0
LINE
  5
465
100
AcDbEntity
  8
0
100
AcDbLine
 62
2
  6
CONTINUOUS
 10
107.7709880371
 20
193.4578293457
 11
106.9954409256
 21
193.5502243652
  0
LINE
  5
466
100
AcDbEntity
  8
0
100
AcDbLine
 62
2
  6
CONTINUOUS
 10
107.8791800385
 20
194.7988403931
 11
108.2669439697
 21
194.7526428833
  0
LINE
  5
467
100
AcDbEntity
  8
0
100
AcDbLine
 62
2
  6
CONTINUOUS
 10
512.322786377
 20
57.9528207855
 11
512.0227592163
 21
58.2028263092
  0
LINE
  5
468
100
AcDbEntity
  8
0
100
AcDbLine
 62
2
  6
CONTINUOUS
 10
512.0227592163
 20
59.9528264771
 11
512.9227380371
 21
59.2028227386
  0
LINE
  5
469
100
AcDbEntity
  8
0
100
AcDbLine
 62
2
  6
CONTINUOUS
 10
512.9227380371
 20
60.7028173828
 11
512.622762207
 21
60.9528229065
  0
LINE
  5
46A
100
AcDbEntity
  8
0
100
AcDbLine
 62
2
  6
CONTINUOUS
 10
519.6727588501
 20
60.9528229065
 11
519.9727860107
 21
60.7028173828
  0
LINE
  5
46B
100
AcDbEntity
  8
0
100
AcDbLine
 62
2
  6
CONTINUOUS
 10
526.7227554932
 20
57.9528207855
 11
526.4227796631
 21
58.2028263092
  0
LINE
  5
46C
100
AcDbEntity
  8
0
100
AcDbLine
 62
2
  6
CONTINUOUS
 10
204.9310112152
 20
477.2687914429
 11
205.0832320099
 21
476.9496693115
  0
LINE
  5
46D
100
AcDbEntity
  8
0
100
AcDbLine
 62
2
  6
CONTINUOUS
 10
206.040559906
 20
477.4063060303
 11
205.888351944
 21
477.7254281616
  0
LINE
  5
46E
100
AcDbEntity
  8
CRV_XY
100
AcDbLine
 62
40
  6
CONTINUOUS
 10
324.3403610013
 20
298.5160819636
 11
324.3403610013
 21
216.8221212777
  0
LINE
  5
46F
100
AcDbEntity
  8
0
100
AcDbLine
 62
2
  6
CONTINUOUS
 10
339.6475309448
 20
373.0402284546
 11
339.6049009094
 21
372.7518276672
  0
LINE
  5
470
100
AcDbEntity
  8
0
100
AcDbLine
 62
2
  6
CONTINUOUS
 10
393.039994873
 20
585.8999771118
 11
393.1749942627
 21
586.4999801025
  0
LINE
  5
471
100
AcDbEntity
  8
0
100
AcDbLine
 62
2
  6
CONTINUOUS
 10
393.039994873
 20
584.6999711304
 11
393.1749942627
 21
585.2999741211
  0
LINE
  5
472
100
AcDbEntity
  8
0
100
AcDbLine
 62
2
  6
CONTINUOUS
 10
394.1199899902
 20
584.6999711304
 11
393.9849906006
 21
584.0999681396
  0
LINE
  5
473
100
AcDbEntity
  8
0
100
AcDbLine
 62
2
  6
CONTINUOUS
 10
344.8609199219
 20
349.990699585
 11
344.9507227478
 21
350.3707510986
  0
LINE
  5
474
100
AcDbEntity
  8
0
100
AcDbLine
 62
2
  6
CONTINUOUS
 10
346.181065094
 20
349.7314032288
 11
346.0014594421
 21
348.9713002014
  0
LINE
  5
475
100
AcDbEntity
  8
0
100
AcDbLine
 62
2
  6
CONTINUOUS
 10
346.1151566467
 20
364.340903717
 11
346.0363898926
 21
364.0602025146
  0
LINE
  5
476
100
AcDbEntity
  8
0
100
AcDbLine
 62
2
  6
CONTINUOUS
 10
349.4559552307
 20
365.7723592224
 11
349.5347219849
 21
366.0530604248
  0
LINE
  5
477
100
AcDbEntity
  8
0
100
AcDbLine
 62
2
  6
CONTINUOUS
 10
350.2196000671
 20
364.6852291565
 11
350.0620408936
 21
364.1238267517
  0
LINE
  5
478
100
AcDbEntity
  8
0
100
AcDbLine
 62
2
  6
CONTINUOUS
 10
350.7453277283
 20
365.6064331665
 11
350.6665353088
 21
365.3257319641
  0
LINE
  5
479
100
AcDbEntity
  8
0
100
AcDbLine
 62
2
  6
CONTINUOUS
 10
351.7710407715
 20
366.4051367798
 11
351.8498075256
 21
366.6858379822
  0
LINE
  5
47A
100
AcDbEntity
  8
0
100
AcDbLine
 62
2
  6
CONTINUOUS
 10
352.0218162537
 20
364.9186549072
 11
352.1793754272
 21
365.480057312
  0
LINE
  5
47B
100
AcDbEntity
  8
0
100
AcDbLine
 62
2
  6
CONTINUOUS
 10
268.6403671875
 20
137.9359168701
 11
268.7903551025
 21
138.4359150848
  0
LINE
  5
47C
100
AcDbEntity
  8
0
100
AcDbLine
 62
2
  6
CONTINUOUS
 10
269.8403731689
 20
136.935907608
 11
269.6903595886
 21
136.4359093933
  0
LINE
  5
47D
100
AcDbEntity
  8
0
100
AcDbLine
 62
2
  6
CONTINUOUS
 10
339.6049009094
 20
372.7518276672
 11
339.4237553406
 21
372.4058853149
  0
LINE
  5
47E
100
AcDbEntity
  8
0
100
AcDbLine
 62
2
  6
CONTINUOUS
 10
349.6107938843
 20
377.9905996094
 11
349.7919651184
 21
378.336567627
  0
LINE
  5
47F
100
AcDbEntity
  8
0
100
AcDbLine
 62
2
  6
CONTINUOUS
 10
351.123839325
 20
375.9119683228
 11
350.9426937561
 21
375.5660003052
  0
LINE
  5
480
100
AcDbEntity
  8
0
100
AcDbLine
 62
2
  6
CONTINUOUS
 10
346.0363898926
 20
364.0602025146
 11
345.8128966064
 21
363.7399511108
  0
LINE
  5
481
100
AcDbEntity
  8
0
100
AcDbLine
 62
2
  6
CONTINUOUS
 10
349.5347219849
 20
366.0530604248
 11
349.7581896057
 21
366.3733118286
  0
LINE
  5
482
100
AcDbEntity
  8
0
100
AcDbLine
 62
2
  6
CONTINUOUS
 10
350.6665353088
 20
365.3257319641
 11
350.2196000671
 21
364.6852291565
  0
LINE
  5
483
100
AcDbEntity
  8
0
100
AcDbLine
 62
2
  6
CONTINUOUS
 10
351.8498075256
 20
366.6858379822
 11
352.0732751465
 21
367.006089386
  0
LINE
  5
484
100
AcDbEntity
  8
0
100
AcDbLine
 62
2
  6
CONTINUOUS
 10
352.1793754272
 20
365.480057312
 11
352.4028430481
 21
365.8003087158
  0
LINE
  5
485
100
AcDbEntity
  8
0
100
AcDbLine
 62
2
  6
CONTINUOUS
 10
352.9157124023
 20
366.1996605225
 11
352.6922447815
 21
365.8794091187
  0
LINE
  5
486
100
AcDbEntity
  8
0
100
AcDbLine
 62
2
  6
CONTINUOUS
 10
353.3770971985
 20
364.5115778503
 11
353.1536295776
 21
364.1913264465
  0
LINE
  5
487
100
AcDbEntity
  8
0
100
AcDbLine
 62
2
  6
CONTINUOUS
 10
356.4799786072
 20
367.9513930969
 11
356.703446228
 21
368.2716445007
  0
LINE
  5
488
100
AcDbEntity
  8
0
100
AcDbLine
 62
2
  6
CONTINUOUS
 10
356.8095465088
 20
366.7456124268
 11
357.0330141296
 21
367.0658638306
  0
LINE
  5
489
100
AcDbEntity
  8
0
100
AcDbLine
 62
2
  6
CONTINUOUS
 10
357.5458578186
 20
367.4652156372
 11
357.3223901978
 21
367.1449642334
  0
LINE
  5
48A
100
AcDbEntity
  8
0
100
AcDbLine
 62
2
  6
CONTINUOUS
 10
358.00726828
 20
365.7771329651
 11
357.7838006592
 21
365.4568815613
  0
LINE
  5
48B
100
AcDbEntity
  8
0
100
AcDbLine
 62
2
  6
CONTINUOUS
 10
349.9517315063
 20
376.7786849365
 11
350.2714182739
 21
377.1821431885
  0
LINE
  5
48C
100
AcDbEntity
  8
0
100
AcDbLine
 62
2
  6
CONTINUOUS
 10
526.9850033569
 20
583.7999923096
 11
526.7150045776
 21
583.5000164795
  0
LINE
  5
48D
100
AcDbEntity
  8
0
100
AcDbLine
 62
2
  6
CONTINUOUS
 10
346.1797561646
 20
352.231407135
 11
345.7799167175
 21
351.9312003174
  0
LINE
  5
48E
100
AcDbEntity
  8
0
100
AcDbLine
 62
2
  6
CONTINUOUS
 10
344.9507227478
 20
350.3707510986
 11
345.1906418152
 21
350.5508700562
  0
LINE
  5
48F
100
AcDbEntity
  8
0
100
AcDbLine
 62
2
  6
CONTINUOUS
 10
346.3803303528
 20
351.1314957581
 11
346.7801697998
 21
351.431728241
  0
LINE
  5
490
100
AcDbEntity
  8
0
100
AcDbLine
 62
2
  6
CONTINUOUS
 10
342.1033392334
 20
345.4192506714
 11
343.1828980408
 21
346.2298373108
  0
LINE
  5
491
100
AcDbEntity
  8
0
100
AcDbLine
 62
2
  6
CONTINUOUS
 10
346.3921363831
 20
347.7015103149
 11
347.351761322
 21
348.4220118103
  0
LINE
  5
492
100
AcDbEntity
  8
0
100
AcDbLine
 62
2
  6
CONTINUOUS
 10
344.9526989746
 20
346.6207452393
 11
344.8327394409
 21
346.5306857605
  0
LINE
  5
493
100
AcDbEntity
  8
0
100
AcDbLine
 62
2
  6
CONTINUOUS
 10
436.5269940796
 20
419.0932426758
 11
433.786352478
 21
417.8730124512
  0
LINE
  5
494
100
AcDbEntity
  8
0
100
AcDbLine
 62
2
  6
CONTINUOUS
 10
437.2904335937
 20
416.1492293701
 11
437.0620639038
 21
416.0475435181
  0
LINE
  5
495
100
AcDbEntity
  8
0
100
AcDbLine
 62
2
  6
CONTINUOUS
 10
435.9811448364
 20
415.4021129761
 11
435.7527751465
 21
415.300427124
  0
LINE
  5
496
100
AcDbEntity
  8
0
100
AcDbLine
 62
2
  6
CONTINUOUS
 10
438.2666383057
 20
413.9567468872
 11
437.8098475952
 21
413.7533751831
  0
LINE
  5
497
100
AcDbEntity
  8
0
100
AcDbLine
 62
2
  6
CONTINUOUS
 10
439.4241939087
 20
413.8153311768
 11
438.9674031982
 21
413.6119594727
  0
LINE
  5
498
100
AcDbEntity
  8
0
100
AcDbLine
 62
2
  6
CONTINUOUS
 10
439.3741466064
 20
412.6984293823
 11
439.8309373169
 21
412.9018010864
  0
LINE
  5
499
100
AcDbEntity
  8
0
100
AcDbLine
 62
2
  6
CONTINUOUS
 10
348.726265564
 20
374.6454379272
 11
348.5877500305
 21
374.5878963623
  0
LINE
  5
49A
100
AcDbEntity
  8
0
100
AcDbLine
 62
2
  6
CONTINUOUS
 10
338.1557363586
 20
373.5034868164
 11
338.8483653564
 21
373.7911433105
  0
LINE
  5
49B
100
AcDbEntity
  8
0
100
AcDbLine
 62
2
  6
CONTINUOUS
 10
339.4237553406
 20
372.4058853149
 11
338.7311263428
 21
372.1182031555
  0
LINE
  5
49C
100
AcDbEntity
  8
0
100
AcDbLine
 62
2
  6
CONTINUOUS
 10
343.4516392212
 20
373.2667502441
 11
344.6983816833
 21
373.784572998
  0
LINE
  5
49D
100
AcDbEntity
  8
0
100
AcDbLine
 62
2
  6
CONTINUOUS
 10
420.7415873108
 20
189.811921875
 11
421.1293384094
 21
189.8581193848
  0
LINE
  5
49E
100
AcDbEntity
  8
0
100
AcDbLine
 62
2
  6
CONTINUOUS
 10
426.0131851501
 20
191.0202434082
 11
425.6254340515
 21
190.9740458984
  0
LINE
  5
49F
100
AcDbEntity
  8
0
100
AcDbLine
 62
2
  6
CONTINUOUS
 10
424.741701355
 20
192.2226619263
 11
424.3539245911
 21
192.1764644165
  0
LINE
  5
4A0
100
AcDbEntity
  8
0
100
AcDbLine
 62
2
  6
CONTINUOUS
 10
424.9478192444
 20
192.4406371765
 11
425.3355960083
 21
192.4868346863
  0
LINE
  5
4A1
100
AcDbEntity
  8
0
100
AcDbLine
 62
2
  6
CONTINUOUS
 10
424.0396018677
 20
193.2995002136
 11
424.4273786316
 21
193.3456977234
  0
LINE
  5
4A2
100
AcDbEntity
  8
0
100
AcDbLine
 62
2
  6
CONTINUOUS
 10
424.7610529785
 20
194.0624007568
 11
425.1144639282
 21
194.0722562256
  0
LINE
  5
4A3
100
AcDbEntity
  8
0
100
AcDbLine
 62
2
  6
CONTINUOUS
 10
425.0848461914
 20
195.13251474
 11
424.7314352417
 21
195.122633606
  0
LINE
  5
4A4
100
AcDbEntity
  8
0
100
AcDbLine
 62
2
  6
CONTINUOUS
 10
831.0400222168
 20
193.7999989014
 11
831.715019165
 21
193.7999989014
  0
LINE
  5
4A5
100
AcDbEntity
  8
0
100
AcDbLine
 62
2
  6
CONTINUOUS
 10
831.0400222168
 20
195.5999822083
 11
832.120017334
 21
195.5999822083
  0
LINE
  5
4A6
100
AcDbEntity
  8
0
100
AcDbLine
 62
2
  6
CONTINUOUS
 10
421.1293384094
 20
189.8581193848
 11
421.414043396
 21
189.7953421021
  0
LINE
  5
4A7
100
AcDbEntity
  8
0
100
AcDbLine
 62
2
  6
CONTINUOUS
 10
424.1825318298
 20
189.448244812
 11
424.4672368164
 21
189.3854675293
  0
LINE
  5
4A8
100
AcDbEntity
  8
0
100
AcDbLine
 62
2
  6
CONTINUOUS
 10
425.3407290649
 20
191.0368488464
 11
425.0560240784
 21
191.0996261292
  0
LINE
  5
4A9
100
AcDbEntity
  8
0
100
AcDbLine
 62
2
  6
CONTINUOUS
 10
425.6254340515
 20
190.9740458984
 11
425.3407290649
 21
191.0368488464
  0
LINE
  5
4AA
100
AcDbEntity
  8
0
100
AcDbLine
 62
2
  6
CONTINUOUS
 10
424.3539245911
 20
192.1764644165
 11
424.0692196045
 21
192.2392416992
  0
LINE
  5
4AB
100
AcDbEntity
  8
0
100
AcDbLine
 62
2
  6
CONTINUOUS
 10
425.6203009949
 20
192.4240317383
 11
425.9050059814
 21
192.3612544556
  0
LINE
  5
4AC
100
AcDbEntity
  8
0
100
AcDbLine
 62
2
  6
CONTINUOUS
 10
425.3355960083
 20
192.4868346863
 11
425.6203009949
 21
192.4240317383
  0
LINE
  5
4AD
100
AcDbEntity
  8
0
100
AcDbLine
 62
2
  6
CONTINUOUS
 10
424.4273786316
 20
193.3456977234
 11
424.7120836182
 21
193.2828947754
  0
LINE
  5
4AE
100
AcDbEntity
  8
0
100
AcDbLine
 62
2
  6
CONTINUOUS
 10
118.6948896942
 20
280.1221247864
 11
118.1948914795
 21
280.2721127014
  0
LINE
  5
4AF
100
AcDbEntity
  8
0
100
AcDbLine
 62
2
  6
CONTINUOUS
 10
119.6948861237
 20
280.1221247864
 11
119.1948879089
 21
280.2721127014
  0
LINE
  5
4B0
100
AcDbEntity
  8
0
100
AcDbLine
 62
2
  6
CONTINUOUS
 10
119.6948861237
 20
281.3221307678
 11
120.194897171
 21
281.1721171875
  0
LINE
  5
4B1
100
AcDbEntity
  8
0
100
AcDbLine
 62
2
  6
CONTINUOUS
 10
98.2126847687
 20
415.9399033203
 11
98.8368323746
 21
415.4978444824
  0
LINE
  5
4B2
100
AcDbEntity
  8
0
100
AcDbLine
 62
2
  6
CONTINUOUS
 10
188.5680842438
 20
346.7408330994
 11
189.5277091827
 21
346.020331604
  0
LINE
  5
4B3
100
AcDbEntity
  8
0
100
AcDbLine
 62
2
  6
CONTINUOUS
 10
187.128659668
 20
347.821598175
 11
187.0087001343
 21
347.9116576538
  0
LINE
  5
4B4
100
AcDbEntity
  8
0
100
AcDbLine
 62
2
  6
CONTINUOUS
 10
185.1799203796
 20
350.222611084
 11
186.2594920197
 21
349.4120501099
  0
LINE
  5
4B5
100
AcDbEntity
  8
0
100
AcDbLine
 62
2
  6
CONTINUOUS
 10
191.8585917053
 20
347.7091072388
 11
192.258443985
 21
347.4089004211
  0
LINE
  5
4B6
100
AcDbEntity
  8
0
100
AcDbLine
 62
2
  6
CONTINUOUS
 10
190.7292037506
 20
348.8696913452
 11
190.9691099854
 21
348.6895723877
  0
LINE
  5
4B7
100
AcDbEntity
  8
0
100
AcDbLine
 62
2
  6
CONTINUOUS
 10
192.8588576202
 20
348.2085793152
 11
192.4590181732
 21
348.5087861328
  0
LINE
  5
4B8
100
AcDbEntity
  8
0
100
AcDbLine
 62
2
  6
CONTINUOUS
 10
534.2227672119
 20
60.9528229065
 11
534.522743042
 21
60.7028173828
  0
LINE
  5
4B9
100
AcDbEntity
  8
0
100
AcDbLine
 62
2
  6
CONTINUOUS
 10
193.6750007935
 20
583.7999923096
 11
193.5400014038
 21
584.0999681396
  0
LINE
  5
4BA
100
AcDbEntity
  8
0
100
AcDbLine
 62
2
  6
CONTINUOUS
 10
194.4849971313
 20
585.2999741211
 11
194.7549959106
 21
584.6999711304
  0
LINE
  5
4BB
100
AcDbEntity
  8
0
100
AcDbLine
 62
2
  6
CONTINUOUS
 10
194.4849971313
 20
586.8000072632
 11
194.619996521
 21
586.4999801025
  0
LINE
  5
4BC
100
AcDbEntity
  8
0
100
AcDbLine
 62
2
  6
CONTINUOUS
 10
344.8910766296
 20
349.7007332153
 11
344.8609199219
 21
349.990699585
  0
LINE
  5
4BD
100
AcDbEntity
  8
0
100
AcDbLine
 62
2
  6
CONTINUOUS
 10
346.0014594421
 20
348.9713002014
 11
346.0617728577
 21
348.3913417969
  0
LINE
  5
4BE
100
AcDbEntity
  8
0
100
AcDbLine
 62
2
  6
CONTINUOUS
 10
346.1509083862
 20
350.0213952637
 11
346.181065094
 21
349.7314032288
  0
LINE
  5
4BF
100
AcDbEntity
  8
0
100
AcDbLine
 62
2
  6
CONTINUOUS
 10
350.0050126343
 20
376.2593735962
 11
349.9517315063
 21
376.7786849365
  0
LINE
  5
4C0
100
AcDbEntity
  8
0
100
AcDbLine
 62
2
  6
CONTINUOUS
 10
349.6214193115
 20
377.182913147
 11
349.5681638489
 21
377.7021731567
  0
LINE
  5
4C1
100
AcDbEntity
  8
0
100
AcDbLine
 62
2
  6
CONTINUOUS
 10
351.1132138977
 20
376.7196547852
 11
351.1664693604
 21
376.2003947754
  0
LINE
  5
4C2
100
AcDbEntity
  8
0
100
AcDbLine
 62
2
  6
CONTINUOUS
 10
350.0620408936
 20
364.1238267517
 11
350.1150910339
 21
363.3608235474
  0
LWPOLYLINE
  5
4C3
100
AcDbEntity
  8
0
100
AcDbPolyline
 62
1
  6
CONTINUOUS
 90
2
 70
0
 43
0.5000000193
 10
361.6
 20
582.4999915527
 10
361.6
 20
586.4999915527
  0
LINE
  5
4C4
100
AcDbEntity
  8
0
100
AcDbLine
 62
2
  6
CONTINUOUS
 10
343.5582784729
 20
375.7474025269
 11
343.4516392212
 21
373.2667502441
  0
LINE
  5
4C5
100
AcDbEntity
  8
0
100
AcDbLine
 62
2
  6
CONTINUOUS
 10
354.6204005127
 20
427.707897644
 11
354.5774624939
 21
427.3197359009
  0
LINE
  5
4C6
100
AcDbEntity
  8
0
100
AcDbLine
 62
2
  6
CONTINUOUS
 10
355.0084082642
 20
429.4684334106
 11
355.051346283
 21
429.8565951538
  0
LINE
  5
4C7
100
AcDbEntity
  8
0
100
AcDbLine
 62
2
  6
CONTINUOUS
 10
356.3502662659
 20
429.3715213013
 11
356.2643902283
 21
428.5951978149
  0
LINE
  5
4C8
100
AcDbEntity
  8
0
100
AcDbLine
 62
2
  6
CONTINUOUS
 10
356.7382740173
 20
431.1320057373
 11
356.7812120361
 21
431.5201674805
  0
LINE
  5
4C9
100
AcDbEntity
  8
0
100
AcDbLine
 62
2
  6
CONTINUOUS
 10
359.1613077393
 20
432.0748455811
 11
359.2042457581
 21
432.4630073242
  0
LINE
  5
4CA
100
AcDbEntity
  8
0
100
AcDbLine
 62
2
  6
CONTINUOUS
 10
360.8497497253
 20
431.6175415649
 11
360.8068117065
 21
431.2293798218
  0
LINE
  5
4CB
100
AcDbEntity
  8
0
100
AcDbLine
 62
2
  6
CONTINUOUS
 10
358.080132019
 20
431.0350936279
 11
357.9942559814
 21
430.2588214722
  0
LINE
  5
4CC
100
AcDbEntity
  8
0
100
AcDbLine
 62
2
  6
CONTINUOUS
 10
345.7799167175
 20
351.9312003174
 11
345.7301004028
 21
351.5811515198
  0
LINE
  5
4CD
100
AcDbEntity
  8
0
100
AcDbLine
 62
2
  6
CONTINUOUS
 10
346.7801697998
 20
351.431728241
 11
346.8299861145
 21
351.7817513733
  0
LINE
  5
4CE
100
AcDbEntity
  8
0
100
AcDbLine
 62
2
  6
CONTINUOUS
 10
349.5681638489
 20
377.7021731567
 11
349.6107938843
 21
377.9905996094
  0
LINE
  5
4CF
100
AcDbEntity
  8
0
100
AcDbLine
 62
2
  6
CONTINUOUS
 10
351.1664693604
 20
376.2003947754
 11
351.123839325
 21
375.9119683228
  0
LINE
  5
4D0
100
AcDbEntity
  8
0
100
AcDbLine
 62
2
  6
CONTINUOUS
 10
352.9944791565
 20
366.4803617249
 11
352.9157124023
 21
366.1996605225
  0
LINE
  5
4D1
100
AcDbEntity
  8
0
100
AcDbLine
 62
2
  6
CONTINUOUS
 10
353.5346563721
 20
365.0729802551
 11
353.3770971985
 21
364.5115778503
  0
LINE
  5
4D2
100
AcDbEntity
  8
0
100
AcDbLine
 62
2
  6
CONTINUOUS
 10
356.4011861877
 20
367.6706918945
 11
356.4799786072
 21
367.9513930969
  0
LINE
  5
4D3
100
AcDbEntity
  8
0
100
AcDbLine
 62
2
  6
CONTINUOUS
 10
356.6519873352
 20
366.184210022
 11
356.8095465088
 21
366.7456124268
  0
LINE
  5
4D4
100
AcDbEntity
  8
0
100
AcDbLine
 62
2
  6
CONTINUOUS
 10
357.624650238
 20
367.7459168396
 11
357.5458578186
 21
367.4652156372
  0
LINE
  5
4D5
100
AcDbEntity
  8
0
100
AcDbLine
 62
2
  6
CONTINUOUS
 10
358.1648274536
 20
366.3385353699
 11
358.00726828
 21
365.7771329651
  0
LINE
  5
4D6
100
AcDbEntity
  8
0
100
AcDbLine
 62
2
  6
CONTINUOUS
 10
434.8078820801
 20
416.1933223267
 11
434.9752710571
 21
416.4320094604
  0
LINE
  5
4D7
100
AcDbEntity
  8
0
100
AcDbLine
 62
2
  6
CONTINUOUS
 10
436.31587146
 20
415.8795385742
 11
435.9811448364
 21
415.4021129761
  0
LINE
  5
4D8
100
AcDbEntity
  8
0
100
AcDbLine
 62
2
  6
CONTINUOUS
 10
592.8099871216
 20
586.8000072632
 11
593.0799859009
 21
587.0999830933
  0
LINE
  5
4D9
100
AcDbEntity
  8
0
100
AcDbLine
 62
2
  6
CONTINUOUS
 10
593.3499846802
 20
583.7999923096
 11
593.0799859009
 21
583.5000164795
  0
LINE
  5
4DA
100
AcDbEntity
  8
0
100
AcDbLine
 62
2
  6
CONTINUOUS
 10
106.4260309525
 20
193.4246697998
 11
105.7780338821
 21
193.0183370361
  0
LINE
  5
4DB
100
AcDbEntity
  8
0
100
AcDbLine
 62
2
  6
CONTINUOUS
 10
18.3403616505
 20
132.7818531952
 11
18.5903607578
 21
132.9318539429
  0
LINE
  5
4DC
100
AcDbEntity
  8
0
100
AcDbLine
 62
2
  6
CONTINUOUS
 10
19.8403611069
 20
131.8818615417
 11
19.5903603954
 21
131.7318607941
  0
LINE
  5
4DD
100
AcDbEntity
  8
0
100
AcDbLine
 62
2
  6
CONTINUOUS
 10
19.8403611069
 20
129.7818639069
 11
20.0903602142
 21
129.9318646545
  0
LINE
  5
4DE
100
AcDbEntity
  8
0
100
AcDbLine
 62
2
  6
CONTINUOUS
 10
17.3403604088
 20
127.831854187
 11
17.5903611202
 21
127.9818549347
  0
LINE
  5
4DF
100
AcDbEntity
  8
0
100
AcDbLine
 62
2
  6
CONTINUOUS
 10
19.8403611069
 20
127.2318640289
 11
19.5903603954
 21
127.0818632813
  0
LINE
  5
4E0
100
AcDbEntity
  8
0
100
AcDbLine
 62
2
  6
CONTINUOUS
 10
119.1948879089
 20
281.1721171875
 11
119.6948861237
 21
281.3221307678
  0
LINE
  5
4E1
100
AcDbEntity
  8
0
100
AcDbLine
 62
2
  6
CONTINUOUS
 10
120.194897171
 20
280.2721127014
 11
119.6948861237
 21
280.1221247864
  0
LINE
  5
4E2
100
AcDbEntity
  8
CRV_XY
100
AcDbLine
 62
40
  6
CONTINUOUS
 10
324.3403610013
 20
216.8221212777
 11
209.3403610013
 21
216.8221212777
  0
LWPOLYLINE
  5
4E3
100
AcDbEntity
  8
0
100
AcDbPolyline
 62
1
  6
CONTINUOUS
 90
2
 70
0
 43
0.5000000193
 10
829.5
 20
228.9999915527
 10
833.3
 20
228.9999915527
  0
LINE
  5
4E4
100
AcDbEntity
  8
0
100
AcDbLine
 62
2
  6
CONTINUOUS
 10
119.9448916473
 20
275.4721144409
 11
120.6948953857
 21
275.3221265259
  0
LINE
  5
4E5
100
AcDbEntity
  8
CRV_XY
100
AcDbLine
 62
2
  6
CONTINUOUS
 10
266.8403610013
 20
339.8221212777
 11
415.4693260968
 21
205.9960000059
  0
LINE
  5
4E6
100
AcDbEntity
  8
0
100
AcDbLine
 62
2
  6
CONTINUOUS
 10
421.414043396
 20
189.7953421021
 11
421.7773354797
 21
189.4518122864
  0
LINE
  5
4E7
100
AcDbEntity
  8
0
100
AcDbLine
 62
2
  6
CONTINUOUS
 10
424.3641907043
 20
189.2764670715
 11
424.1825318298
 21
189.448244812
  0
LINE
  5
4E8
100
AcDbEntity
  8
0
100
AcDbLine
 62
2
  6
CONTINUOUS
 10
425.0560240784
 20
191.0996261292
 11
424.8743652039
 21
191.2714038696
  0
LINE
  5
4E9
100
AcDbEntity
  8
0
100
AcDbLine
 62
2
  6
CONTINUOUS
 10
424.0692196045
 20
192.2392416992
 11
423.88756073
 21
192.4110194397
  0
LINE
  5
4EA
100
AcDbEntity
  8
0
100
AcDbLine
 62
2
  6
CONTINUOUS
 10
424.7120836182
 20
193.2828947754
 11
424.8937168274
 21
193.1111427002
  0
LINE
  5
4EB
100
AcDbEntity
  8
0
100
AcDbLine
 62
2
  6
CONTINUOUS
 10
425.9050059814
 20
192.3612544556
 11
426.0866391907
 21
192.1894767151
  0
LINE
  5
4EC
100
AcDbEntity
  8
0
100
AcDbLine
 62
2
  6
CONTINUOUS
 10
424.3977608948
 20
194.4059305725
 11
424.7610529785
 21
194.0624007568
  0
LINE
  5
4ED
100
AcDbEntity
  8
0
100
AcDbLine
 62
2
  6
CONTINUOUS
 10
425.4481382751
 20
194.788959259
 11
425.0848461914
 21
195.13251474
  0
LINE
  5
4EE
100
AcDbEntity
  8
CRV_XY
100
AcDbLine
 62
2
  6
CONTINUOUS
 10
266.8403610013
 20
339.8221212777
 11
408.7545083086
 21
198.895279285
  0
LINE
  5
4EF
100
AcDbEntity
  8
0
100
AcDbLine
 62
2
  6
CONTINUOUS
 10
421.9641274109
 20
187.8300487061
 11
422.4059809265
 21
187.2057406921
  0
LINE
  5
4F0
100
AcDbEntity
  8
0
100
AcDbLine
 62
2
  6
CONTINUOUS
 10
345.4849199524
 20
362.0952684326
 11
344.6939672546
 21
364.9891317749
  0
LINE
  5
4F1
100
AcDbEntity
  8
0
100
AcDbLine
 62
2
  6
CONTINUOUS
 10
341.5920611267
 20
347.8489830322
 11
342.1033392334
 21
345.4192506714
  0
LINE
  5
4F2
100
AcDbEntity
  8
DTM_CRV
100
AcDbLine
 62
4
  6
CONTINUOUS
 10
290.278788232
 20
544.38909049
 11
296.416010343
 21
512.8918705261
  0
LINE
  5
4F3
100
AcDbEntity
  8
0
100
AcDbLine
 62
2
  6
CONTINUOUS
 10
393.039994873
 20
584.6999711304
 11
393.039994873
 21
585.8999771118
  0
LINE
  5
4F4
100
AcDbEntity
  8
0
100
AcDbLine
 62
2
  6
CONTINUOUS
 10
418.5510297241
 20
528.2370667114
 11
418.6432450867
 21
528.7435454102
  0
LINE
  5
4F5
100
AcDbEntity
  8
0
100
AcDbLine
 62
2
  6
CONTINUOUS
 10
263.840368927
 20
138.4359150848
 11
263.990356842
 21
138.6859077759
  0
LINE
  5
4F6
100
AcDbEntity
  8
0
100
AcDbLine
 62
2
  6
CONTINUOUS
 10
265.0403492432
 20
137.9359168701
 11
264.8903613281
 21
137.6859113464
  0
LINE
  5
4F7
100
AcDbEntity
  8
0
100
AcDbLine
 62
2
  6
CONTINUOUS
 10
267.4403612061
 20
138.1859095612
 11
267.290373291
 21
137.9359168701
  0
LINE
  5
4F8
100
AcDbEntity
  8
0
100
AcDbLine
 62
2
  6
CONTINUOUS
 10
267.5903491211
 20
136.685914917
 11
267.290373291
 21
136.1859167023
  0
LINE
  5
4F9
100
AcDbEntity
  8
0
100
AcDbLine
 62
2
  6
CONTINUOUS
 10
269.6903595886
 20
136.4359093933
 11
269.5403716736
 21
136.1859167023
  0
LINE
  5
4FA
100
AcDbEntity
  8
0
100
AcDbLine
 62
2
  6
CONTINUOUS
 10
264.2903583374
 20
137.1859131317
 11
263.990356842
 21
136.685914917
  0
LINE
  5
4FB
100
AcDbEntity
  8
0
100
AcDbLine
 62
2
  6
CONTINUOUS
 10
268.7903551025
 20
138.4359150848
 11
268.9403686829
 21
138.6859077759
  0
LINE
  5
4FC
100
AcDbEntity
  8
0
100
AcDbLine
 62
2
  6
CONTINUOUS
 10
437.4578225708
 20
416.3879678345
 11
437.2904335937
 21
416.1492293701
  0
LINE
  5
4FD
100
AcDbEntity
  8
0
100
AcDbLine
 62
2
  6
CONTINUOUS
 10
438.4339759521
 20
414.195434021
 11
438.2666383057
 21
413.9567468872
  0
LINE
  5
4FE
100
AcDbEntity
  8
0
100
AcDbLine
 62
2
  6
CONTINUOUS
 10
110.8924896088
 20
191.2484847717
 11
111.1771945953
 21
191.3112877197
  0
LINE
  5
4FF
100
AcDbEntity
  8
0
100
AcDbLine
 62
2
  6
CONTINUOUS
 10
110.5485491486
 20
189.0652161255
 11
109.9791391754
 21
188.9396358948
  0
LINE
  5
500
100
AcDbEntity
  8
0
100
AcDbLine
 62
2
  6
CONTINUOUS
 10
111.5353536224
 20
190.2048316956
 11
111.2506486359
 21
190.1420544128
  0
LINE
  5
501
100
AcDbEntity
  8
0
100
AcDbLine
 62
2
  6
CONTINUOUS
 10
109.6995672455
 20
190.3268444519
 11
110.2689772186
 21
190.4524246826
  0
LINE
  5
502
100
AcDbEntity
  8
0
100
AcDbLine
 62
2
  6
CONTINUOUS
 10
108.0556930237
 20
193.5206066284
 11
107.7709880371
 21
193.4578293457
  0
LINE
  5
503
100
AcDbEntity
  8
0
100
AcDbLine
 62
2
  6
CONTINUOUS
 10
106.9954409256
 20
193.5502243652
 11
106.4260309525
 21
193.4246697998
  0
LINE
  5
504
100
AcDbEntity
  8
0
100
AcDbLine
 62
2
  6
CONTINUOUS
 10
107.5944686356
 20
194.7360631104
 11
107.8791800385
 21
194.7988403931
  0
LINE
  5
505
100
AcDbEntity
  8
0
100
AcDbLine
 62
2
  6
CONTINUOUS
 10
509.590357666
 20
252.2364352722
 11
509.8403375244
 21
252.2364352722
  0
LINE
  5
506
100
AcDbEntity
  8
0
100
AcDbLine
 62
2
  6
CONTINUOUS
 10
511.0903394775
 20
252.3864488525
 11
511.3403706665
 21
252.3864488525
  0
LINE
  5
507
100
AcDbEntity
  8
0
100
AcDbLine
 62
2
  6
CONTINUOUS
 10
501.5903862305
 20
254.2335279541
 11
501.8403660889
 21
254.2335279541
  0
LINE
  5
508
100
AcDbEntity
  8
0
100
AcDbLine
 62
2
  6
CONTINUOUS
 10
503.090368042
 20
254.3835158691
 11
503.3403479004
 21
254.3835158691
  0
LINE
  5
509
100
AcDbEntity
  8
0
100
AcDbLine
 62
2
  6
CONTINUOUS
 10
509.590357666
 20
254.6364472351
 11
509.8403375244
 21
254.6364472351
  0
LINE
  5
50A
100
AcDbEntity
  8
0
100
AcDbLine
 62
2
  6
CONTINUOUS
 10
511.0903394775
 20
254.7864351501
 11
511.3403706665
 21
254.7864351501
  0
LINE
  5
50B
100
AcDbEntity
  8
0
100
AcDbLine
 62
2
  6
CONTINUOUS
 10
501.5903862305
 20
256.6335142517
 11
502.0903459473
 21
256.6335142517
  0
LINE
  5
50C
100
AcDbEntity
  8
0
100
AcDbLine
 62
2
  6
CONTINUOUS
 10
509.590357666
 20
257.036459198
 11
509.8403375244
 21
257.036459198
  0
LINE
  5
50D
100
AcDbEntity
  8
0
100
AcDbLine
 62
2
  6
CONTINUOUS
 10
511.0903394775
 20
257.186447113
 11
511.3403706665
 21
257.186447113
  0
LINE
  5
50E
100
AcDbEntity
  8
0
100
AcDbLine
 62
2
  6
CONTINUOUS
 10
512.0903615723
 20
258.6864545898
 11
511.8403817139
 21
258.6864545898
  0
LINE
  5
50F
100
AcDbEntity
  8
0
100
AcDbLine
 62
2
  6
CONTINUOUS
 10
504.0903388062
 20
260.6835216064
 11
503.8403589478
 21
260.6835216064
  0
LINE
  5
510
100
AcDbEntity
  8
0
100
AcDbLine
 62
2
  6
CONTINUOUS
 10
832.120017334
 20
261.9999966431
 11
831.0400222168
 21
261.9999966431
  0
LINE
  5
511
100
AcDbEntity
  8
0
100
AcDbLine
 62
2
  6
CONTINUOUS
 10
503.090368042
 20
262.6335184937
 11
502.0903459473
 21
262.6335184937
  0
LINE
  5
512
100
AcDbEntity
  8
0
100
AcDbLine
 62
2
  6
CONTINUOUS
 10
831.0400222168
 20
263.79997995
 11
831.715019165
 21
263.79997995
  0
LINE
  5
513
100
AcDbEntity
  8
0
100
AcDbLine
 62
2
  6
CONTINUOUS
 10
831.0400222168
 20
265.5999889221
 11
832.120017334
 21
265.5999889221
  0
LINE
  5
514
100
AcDbEntity
  8
5_ALL_CURVE
100
AcDbLine
 62
4
  6
CONTINUOUS
 10
235.8403610013
 20
267.3221212777
 11
297.8403610013
 21
267.3221212777
  0
LINE
  5
515
100
AcDbEntity
  8
CRV_XY
100
AcDbLine
 62
2
  6
CONTINUOUS
 10
350.4441538675
 20
264.5449280623
 11
263.0640695765
 21
269.1243242336
  0
LINE
  5
516
100
AcDbEntity
  8
0
100
AcDbLine
 62
2
  6
CONTINUOUS
 10
501.0903751831
 20
258.1335217285
 11
502.3403771362
 21
257.9835338135
  0
LINE
  5
517
100
AcDbEntity
  8
CRV_XY
100
AcDbLine
 62
2
  6
CONTINUOUS
 10
346.6670688616
 20
260.5507726568
 11
260.4963904731
 21
275.7449882027
  0
LINE
  5
518
100
AcDbEntity
  8
0
100
AcDbLine
 62
2
  6
CONTINUOUS
 10
94.3879031067
 20
412.8811148682
 11
97.1285382919
 21
411.6609359741
  0
LINE
  5
519
100
AcDbEntity
  8
0
100
AcDbLine
 62
2
  6
CONTINUOUS
 10
343.3933020325
 20
345.4499463501
 11
341.5920611267
 21
347.8489830322
  0
LINE
  5
51A
100
AcDbEntity
  8
0
100
AcDbLine
 62
2
  6
CONTINUOUS
 10
345.8507015686
 20
350.4212347107
 11
346.1509083862
 21
350.0213952637
  0
LINE
  5
51B
100
AcDbEntity
  8
0
100
AcDbLine
 62
2
  6
CONTINUOUS
 10
345.7301004028
 20
351.5811515198
 11
346.0303072205
 21
351.1813120728
  0
LINE
  5
51C
100
AcDbEntity
  8
0
100
AcDbLine
 62
2
  6
CONTINUOUS
 10
346.8299861145
 20
351.7817513733
 11
346.5297792969
 21
352.1815908203
  0
LINE
  5
51D
100
AcDbEntity
  8
0
100
AcDbLine
 62
2
  6
CONTINUOUS
 10
344.8327394409
 20
346.5306857605
 11
344.6826488647
 21
346.7306183167
  0
LINE
  5
51E
100
AcDbEntity
  8
CRV_XY
100
AcDbLine
 62
2
  6
CONTINUOUS
 10
266.8403610013
 20
452.3221212777
 11
316.7777981737
 21
380.4715654785
  0
LINE
  5
51F
100
AcDbEntity
  8
0
100
AcDbLine
 62
2
  6
CONTINUOUS
 10
345.8128966064
 20
363.7399511108
 11
346.6424755554
 21
362.4116700439
  0
LINE
  5
520
100
AcDbEntity
  8
0
100
AcDbLine
 62
2
  6
CONTINUOUS
 10
512.9227380371
 20
59.2028227386
 11
513.0727772827
 21
58.952817215
  0
LINE
  5
521
100
AcDbEntity
  8
0
100
AcDbLine
 62
2
  6
CONTINUOUS
 10
513.0727772827
 20
60.4528246918
 11
512.9227380371
 21
60.7028173828
  0
LINE
  5
522
100
AcDbEntity
  8
0
100
AcDbLine
 62
2
  6
CONTINUOUS
 10
526.4227796631
 20
58.2028263092
 11
526.2727404175
 21
58.4528190002
  0
LINE
  5
523
100
AcDbEntity
  8
0
100
AcDbLine
 62
2
  6
CONTINUOUS
 10
508.2727533569
 20
59.2028227386
 11
507.9727775269
 21
59.7028209534
  0
LINE
  5
524
100
AcDbEntity
  8
0
100
AcDbLine
 62
2
  6
CONTINUOUS
 10
508.1227654419
 20
60.7028173828
 11
507.9727775269
 21
60.9528229065
  0
LINE
  5
525
100
AcDbEntity
  8
0
100
AcDbLine
 62
2
  6
CONTINUOUS
 10
512.0227592163
 20
58.2028263092
 11
511.7227833862
 21
58.7028245239
  0
LINE
  5
526
100
AcDbEntity
  8
0
100
AcDbLine
 62
2
  6
CONTINUOUS
 10
511.8727713013
 20
60.2028191681
 11
512.0227592163
 21
59.9528264771
  0
LINE
  5
527
100
AcDbEntity
  8
0
100
AcDbLine
 62
2
  6
CONTINUOUS
 10
519.9727860107
 20
60.7028173828
 11
520.2727618408
 21
60.2028191681
  0
LINE
  5
528
100
AcDbEntity
  8
0
100
AcDbLine
 62
2
  6
CONTINUOUS
 10
346.0617728577
 20
348.3913417969
 11
346.3921363831
 21
347.7015103149
  0
LINE
  5
529
100
AcDbEntity
  8
0
100
AcDbLine
 62
2
  6
CONTINUOUS
 10
348.5877500305
 20
374.5878963623
 11
348.4918388672
 21
374.81878125
  0
LINE
  5
52A
100
AcDbEntity
  8
0
100
AcDbLine
 62
2
  6
CONTINUOUS
 10
339.3064906616
 20
370.7329451599
 11
338.1557363586
 21
373.5034868164
  0
LINE
  5
52B
100
AcDbEntity
  8
0
100
AcDbLine
 62
2
  6
CONTINUOUS
 10
339.4557342834
 20
373.50199823
 11
339.6475309448
 21
373.0402284546
  0
LINE
  5
52C
100
AcDbEntity
  8
0
100
AcDbLine
 62
2
  6
CONTINUOUS
 10
340.9262780151
 20
374.6542154541
 11
342.0770066528
 21
371.8836737976
  0
LINE
  5
52D
100
AcDbEntity
  8
0
100
AcDbLine
 62
2
  6
CONTINUOUS
 10
344.7090071106
 20
372.9768865356
 11
343.5582784729
 21
375.7474025269
  0
LINE
  5
52E
100
AcDbEntity
  8
0
100
AcDbLine
 62
2
  6
CONTINUOUS
 10
345.3591087341
 20
376.4953915405
 11
346.5098373718
 21
373.7248242187
  0
LINE
  5
52F
100
AcDbEntity
  8
0
100
AcDbLine
 62
2
  6
CONTINUOUS
 10
350.0050126343
 20
376.2593735962
 11
349.6214193115
 21
377.182913147
  0
LINE
  5
530
100
AcDbEntity
  8
0
100
AcDbLine
 62
2
  6
CONTINUOUS
 10
326.3390293274
 20
475.089090271
 11
326.7896860352
 21
473.8165028687
  0
LINE
  5
531
100
AcDbEntity
  8
0
100
AcDbLine
 62
2
  6
CONTINUOUS
 10
329.7097536316
 20
471.5619104004
 11
329.8766549683
 21
471.0905931396
  0
LINE
  5
532
100
AcDbEntity
  8
0
100
AcDbLine
 62
2
  6
CONTINUOUS
 10
330.819315155
 20
471.424395813
 11
330.6524138184
 21
471.8957130737
  0
LINE
  5
533
100
AcDbEntity
  8
0
100
AcDbLine
 62
2
  6
CONTINUOUS
 10
420.5895461731
 20
188.9234667664
 11
420.5109590759
 21
189.2042192993
  0
LINE
  5
534
100
AcDbEntity
  8
0
100
AcDbLine
 62
2
  6
CONTINUOUS
 10
421.8069532166
 20
188.391553772
 11
421.9641274109
 21
187.8300487061
  0
LINE
  5
535
100
AcDbEntity
  8
0
100
AcDbLine
 62
2
  6
CONTINUOUS
 10
421.7773354797
 20
189.4518122864
 11
421.8559225769
 21
189.1710340881
  0
LINE
  5
536
100
AcDbEntity
  8
0
100
AcDbLine
 62
2
  6
CONTINUOUS
 10
347.5878049316
 20
365.7800844727
 11
348.3787832947
 21
362.8862467957
  0
LINE
  5
537
100
AcDbEntity
  8
0
100
AcDbLine
 62
2
  6
CONTINUOUS
 10
350.6134851685
 20
366.0887608337
 11
350.7453277283
 21
365.6064331665
  0
LINE
  5
538
100
AcDbEntity
  8
0
100
AcDbLine
 62
2
  6
CONTINUOUS
 10
355.1793390503
 20
364.7450036011
 11
355.1134049377
 21
364.9861802673
  0
LINE
  5
539
100
AcDbEntity
  8
0
100
AcDbLine
 62
2
  6
CONTINUOUS
 10
345.9833397522
 20
364.823205719
 11
346.1151566467
 21
364.340903717
  0
LINE
  5
53A
100
AcDbEntity
  8
0
100
AcDbLine
 62
2
  6
CONTINUOUS
 10
352.0877247009
 20
364.6775039062
 11
352.0218162537
 21
364.9186549072
  0
LINE
  5
53B
100
AcDbEntity
  8
0
100
AcDbLine
 62
2
  6
CONTINUOUS
 10
351.8369492187
 20
366.1639857788
 11
351.7710407715
 21
366.4051367798
  0
LINE
  5
53C
100
AcDbEntity
  8
0
100
AcDbLine
 62
2
  6
CONTINUOUS
 10
352.9285707092
 20
366.7215127258
 11
352.9944791565
 21
366.4803617249
  0
LINE
  5
53D
100
AcDbEntity
  8
0
100
AcDbLine
 62
2
  6
CONTINUOUS
 10
353.4687479248
 20
365.3141569214
 11
353.5346563721
 21
365.0729802551
  0
LINE
  5
53E
100
AcDbEntity
  8
0
100
AcDbLine
 62
2
  6
CONTINUOUS
 10
356.7178957825
 20
365.943059021
 11
356.6519873352
 21
366.184210022
  0
LINE
  5
53F
100
AcDbEntity
  8
0
100
AcDbLine
 62
2
  6
CONTINUOUS
 10
356.467094635
 20
367.4295408936
 11
356.4011861877
 21
367.6706918945
  0
LINE
  5
540
100
AcDbEntity
  8
0
100
AcDbLine
 62
2
  6
CONTINUOUS
 10
357.5587417908
 20
367.9870678406
 11
357.624650238
 21
367.7459168396
  0
LINE
  5
541
100
AcDbEntity
  8
0
100
AcDbLine
 62
2
  6
CONTINUOUS
 10
358.0989190063
 20
366.5796863708
 11
358.1648274536
 21
366.3385353699
  0
LINE
  5
542
100
AcDbEntity
  8
0
100
AcDbLine
 62
2
  6
CONTINUOUS
 10
356.2643902283
 20
428.5951978149
 11
356.3947442017
 21
428.0268657837
  0
LINE
  5
543
100
AcDbEntity
  8
0
100
AcDbLine
 62
2
  6
CONTINUOUS
 10
357.9942559814
 20
430.2588214722
 11
358.1246099548
 21
429.6904894409
  0
LINE
  5
544
100
AcDbEntity
  8
0
100
AcDbLine
 62
2
  6
CONTINUOUS
 10
354.5552363586
 20
427.9920636597
 11
354.6204005127
 21
427.707897644
  0
LINE
  5
545
100
AcDbEntity
  8
0
100
AcDbLine
 62
2
  6
CONTINUOUS
 10
355.0735724182
 20
429.184267395
 11
355.0084082642
 21
429.4684334106
  0
LINE
  5
546
100
AcDbEntity
  8
0
100
AcDbLine
 62
2
  6
CONTINUOUS
 10
356.2851021118
 20
429.6556873169
 11
356.3502662659
 21
429.3715213013
  0
LINE
  5
547
100
AcDbEntity
  8
0
100
AcDbLine
 62
2
  6
CONTINUOUS
 10
356.8034381714
 20
430.8478397217
 11
356.7382740173
 21
431.1320057373
  0
LINE
  5
548
100
AcDbEntity
  8
0
100
AcDbLine
 62
2
  6
CONTINUOUS
 10
358.014967865
 20
431.3192596436
 11
358.080132019
 21
431.0350936279
  0
LINE
  5
549
100
AcDbEntity
  8
0
100
AcDbLine
 62
2
  6
CONTINUOUS
 10
360.7845855713
 20
431.9017075806
 11
360.8497497253
 21
431.6175415649
  0
LINE
  5
54A
100
AcDbEntity
  8
0
100
AcDbLine
 62
2
  6
CONTINUOUS
 10
327.6200092773
 20
585.2999741211
 11
327.755008667
 21
584.6999711304
  0
LINE
  5
54B
100
AcDbEntity
  8
0
100
AcDbLine
 62
2
  6
CONTINUOUS
 10
424.3878797607
 20
194.7593415222
 11
424.3977608948
 21
194.4059305725
  0
LINE
  5
54C
100
AcDbEntity
  8
0
100
AcDbLine
 62
2
  6
CONTINUOUS
 10
425.4579937439
 20
194.4355483093
 11
425.4481382751
 21
194.788959259
  0
LINE
  5
54D
100
AcDbEntity
  8
0
100
AcDbLine
 62
2
  6
CONTINUOUS
 10
415.8837138367
 20
525.3808800049
 11
415.886639679
 21
524.9903570557
  0
LINE
  5
54E
100
AcDbEntity
  8
0
100
AcDbLine
 62
2
  6
CONTINUOUS
 10
417.6798986816
 20
529.1460283813
 11
417.6769471741
 21
529.5365
  0
LINE
  5
54F
100
AcDbEntity
  8
0
100
AcDbLine
 62
2
  6
CONTINUOUS
 10
419.2024146118
 20
531.001269043
 11
419.1994631042
 21
531.3917919922
  0
LINE
  5
550
100
AcDbEntity
  8
0
100
AcDbLine
 62
2
  6
CONTINUOUS
 10
419.9930849915
 20
528.0238908691
 11
419.996036499
 21
527.6333679199
  0
LINE
  5
551
100
AcDbEntity
  8
0
100
AcDbLine
 62
2
  6
CONTINUOUS
 10
421.5156009216
 20
529.8791315308
 11
421.5185267639
 21
529.4886599121
  0
LINE
  5
552
100
AcDbEntity
  8
0
100
AcDbLine
 62
2
  6
CONTINUOUS
 10
402.5064549255
 20
502.0295787354
 11
402.5011422119
 21
501.6391071167
  0
LINE
  5
553
100
AcDbEntity
  8
0
100
AcDbLine
 62
2
  6
CONTINUOUS
 10
404.381894165
 20
505.755869873
 11
404.3872068787
 21
506.1463414917
  0
LINE
  5
554
100
AcDbEntity
  8
0
100
AcDbLine
 62
2
  6
CONTINUOUS
 10
405.9432929993
 20
507.578515625
 11
405.9486057129
 21
507.9689872437
  0
LINE
  5
555
100
AcDbEntity
  8
0
100
AcDbLine
 62
2
  6
CONTINUOUS
 10
406.6708267822
 20
504.5850709839
 11
406.6655140686
 21
504.1945993652
  0
LINE
  5
556
100
AcDbEntity
  8
0
100
AcDbLine
 62
2
  6
CONTINUOUS
 10
408.2322256165
 20
506.4077167358
 11
408.2269129028
 21
506.0172451172
  0
LINE
  5
557
100
AcDbEntity
  8
0
100
AcDbLine
 62
2
  6
CONTINUOUS
 10
460.2150238647
 20
584.999998291
 11
460.3500232544
 21
585.8999771118
  0
LINE
  5
558
100
AcDbEntity
  8
0
100
AcDbLine
 62
2
  6
CONTINUOUS
 10
460.3500232544
 20
585.8999771118
 11
460.6200220337
 21
587.0999830933
  0
LINE
  5
559
100
AcDbEntity
  8
0
100
AcDbLine
 62
2
  6
CONTINUOUS
 10
434.7015251465
 20
415.8175825806
 11
434.8078820801
 21
416.1933223267
  0
LINE
  5
55A
100
AcDbEntity
  8
0
100
AcDbLine
 62
2
  6
CONTINUOUS
 10
436.4222797241
 20
416.2552783203
 11
436.31587146
 21
415.8795385742
  0
LINE
  5
55B
100
AcDbEntity
  8
0
100
AcDbLine
 62
2
  6
CONTINUOUS
 10
437.5641795044
 20
416.7637075806
 11
437.4578225708
 21
416.3879678345
  0
LINE
  5
55C
100
AcDbEntity
  8
0
100
AcDbLine
 62
2
  6
CONTINUOUS
 10
438.5403328857
 20
414.5711737671
 11
438.4339759521
 21
414.195434021
  0
LINE
  5
55D
100
AcDbEntity
  8
0
100
AcDbLine
 62
2
  6
CONTINUOUS
 10
438.9674031982
 20
413.6119594727
 11
438.8407193604
 21
413.2819039307
  0
LINE
  5
55E
100
AcDbEntity
  8
0
100
AcDbLine
 62
2
  6
CONTINUOUS
 10
439.8309373169
 20
412.9018010864
 11
439.9576211548
 21
413.2318566284
  0
LINE
  5
55F
100
AcDbEntity
  8
0
100
AcDbLine
 62
2
  6
CONTINUOUS
 10
526.0400076294
 20
586.4999801025
 11
526.175007019
 21
586.8000072632
  0
LINE
  5
560
100
AcDbEntity
  8
0
100
AcDbLine
 62
2
  6
CONTINUOUS
 10
526.0400076294
 20
584.999998291
 11
526.175007019
 21
585.2999741211
  0
LINE
  5
561
100
AcDbEntity
  8
0
100
AcDbLine
 62
2
  6
CONTINUOUS
 10
525.9050082397
 20
584.6999711304
 11
526.0400076294
 21
584.999998291
  0
LINE
  5
562
100
AcDbEntity
  8
0
100
AcDbLine
 62
2
  6
CONTINUOUS
 10
527.1200027466
 20
586.2000042725
 11
526.9850033569
 21
585.8999771118
  0
LINE
  5
563
100
AcDbEntity
  8
0
100
AcDbLine
 62
2
  6
CONTINUOUS
 10
527.1200027466
 20
584.0999681396
 11
526.9850033569
 21
583.7999923096
  0
LINE
  5
564
100
AcDbEntity
  8
0
100
AcDbLine
 62
2
  6
CONTINUOUS
 10
527.2550021362
 20
584.3999953003
 11
527.1200027466
 21
584.0999681396
  0
LINE
  5
565
100
AcDbEntity
  8
0
100
AcDbLine
 62
2
  6
CONTINUOUS
 10
661.4700093994
 20
586.8000072632
 11
661.7400081787
 21
587.0999830933
  0
LINE
  5
566
100
AcDbEntity
  8
0
100
AcDbLine
 62
2
  6
CONTINUOUS
 10
662.010006958
 20
583.7999923096
 11
661.7400081787
 21
583.5000164795
  0
LINE
  5
567
100
AcDbEntity
  8
0
100
AcDbLine
 62
2
  6
CONTINUOUS
 10
17.3403604088
 20
84.6017003021
 11
17.5903611202
 21
84.7517010498
  0
LINE
  5
568
100
AcDbEntity
  8
0
100
AcDbLine
 62
2
  6
CONTINUOUS
 10
19.8403611069
 20
84.001710144
 11
19.5903603954
 21
83.8517093964
  0
LINE
  5
569
100
AcDbEntity
  8
0
100
AcDbLine
 62
2
  6
CONTINUOUS
 10
18.3403616505
 20
82.3517019196
 11
18.5903607578
 21
82.5017026672
  0
LINE
  5
56A
100
AcDbEntity
  8
0
100
AcDbLine
 62
2
  6
CONTINUOUS
 10
19.8403611069
 20
81.4517102661
 11
19.5903603954
 21
81.3017095184
  0
LINE
  5
56B
100
AcDbEntity
  8
CRV_XY
100
AcDbLine
 62
2
  6
CONTINUOUS
 10
183.2365681351
 20
264.5449280623
 11
270.6166524261
 21
269.1243242336
  0
LINE
  5
56C
100
AcDbEntity
  8
0
100
AcDbLine
 62
2
  6
CONTINUOUS
 10
118.1948914795
 20
276.5221325073
 11
118.6948896942
 21
276.5221325073
  0
LINE
  5
56D
100
AcDbEntity
  8
0
100
AcDbLine
 62
2
  6
CONTINUOUS
 10
120.6948953857
 20
278.7721308899
 11
117.6948932648
 21
278.7721308899
  0
LINE
  5
56E
100
AcDbEntity
  8
0
100
AcDbLine
 62
2
  6
CONTINUOUS
 10
119.6948861237
 20
280.1221247864
 11
118.6948896942
 21
280.1221247864
  0
LINE
  5
56F
100
AcDbEntity
  8
0
100
AcDbLine
 62
7
  6
CONTINUOUS
 10
0.0
 20
297.0
 11
15.0
 21
297.0
  0
LINE
  5
570
100
AcDbEntity
  8
0
100
AcDbLine
 62
7
  6
CONTINUOUS
 10
13.4773984299
 20
297.826499115
 11
14.5405234356
 21
297.826499115
  0
LINE
  5
571
100
AcDbEntity
  8
0
100
AcDbLine
 62
7
  6
CONTINUOUS
 10
11.7055242224
 20
298.0014850159
 11
12.4142742262
 21
298.0014850159
  0
LWPOLYLINE
  5
572
100
AcDbEntity
  8
0
100
AcDbPolyline
 62
1
  6
CONTINUOUS
 90
2
 70
0
 43
0.5000000193
 10
833.3
 20
298.9999915527
 10
829.5
 20
298.9999915527
  0
LINE
  5
573
100
AcDbEntity
  8
0
100
AcDbLine
 62
2
  6
CONTINUOUS
 10
509.0903466187
 20
260.9364529724
 11
510.3403485718
 21
260.7864393921
  0
LINE
  5
574
100
AcDbEntity
  8
0
100
AcDbLine
 62
2
  6
CONTINUOUS
 10
503.3403479004
 20
255.5835218506
 11
504.0903388062
 21
255.4335339355
  0
LINE
  5
575
100
AcDbEntity
  8
0
100
AcDbLine
 62
2
  6
CONTINUOUS
 10
503.090368042
 20
259.1835141296
 11
503.5903790894
 21
259.0335262146
  0
LINE
  5
576
100
AcDbEntity
  8
0
100
AcDbLine
 62
2
  6
CONTINUOUS
 10
502.0903459473
 20
262.6335184937
 11
501.5903862305
 21
262.783532074
  0
LINE
  5
577
100
AcDbEntity
  8
0
100
AcDbLine
 62
2
  6
CONTINUOUS
 10
503.090368042
 20
262.6335184937
 11
502.5903569946
 21
262.783532074
  0
LINE
  5
578
100
AcDbEntity
  8
0
100
AcDbLine
 62
2
  6
CONTINUOUS
 10
503.090368042
 20
263.8335244751
 11
503.5903790894
 21
263.6835365601
  0
LINE
  5
579
100
AcDbEntity
  8
0
100
AcDbLine
 62
2
  6
CONTINUOUS
 10
511.0903394775
 20
261.9864453735
 11
511.5903505249
 21
261.8364574585
  0
LINE
  5
57A
100
AcDbEntity
  8
0
100
AcDbLine
 62
2
  6
CONTINUOUS
 10
96.0648855438
 20
415.4183847656
 11
96.2932744827
 21
415.3166989136
  0
LINE
  5
57B
100
AcDbEntity
  8
0
100
AcDbLine
 62
2
  6
CONTINUOUS
 10
97.4962127228
 20
414.9453222656
 11
97.7246016617
 21
414.8436364136
  0
LINE
  5
57C
100
AcDbEntity
  8
0
100
AcDbLine
 62
2
  6
CONTINUOUS
 10
97.0410517578
 20
417.6109185791
 11
97.4978296356
 21
417.407546875
  0
LINE
  5
57D
100
AcDbEntity
  8
0
100
AcDbLine
 62
2
  6
CONTINUOUS
 10
96.3715535965
 20
418.5657697754
 11
96.828325058
 21
418.3623980713
  0
LINE
  5
57E
100
AcDbEntity
  8
0
100
AcDbLine
 62
2
  6
CONTINUOUS
 10
97.2350620499
 20
419.2759794922
 11
96.7782905884
 21
419.4792998657
  0
LINE
  5
57F
100
AcDbEntity
  8
0
100
AcDbLine
 62
2
  6
CONTINUOUS
 10
345.7727304382
 20
365.0248065186
 11
345.9833397522
 21
364.823205719
  0
LINE
  5
580
100
AcDbEntity
  8
0
100
AcDbLine
 62
2
  6
CONTINUOUS
 10
352.5089433289
 20
364.2743023071
 11
352.0877247009
 21
364.6775039062
  0
LINE
  5
581
100
AcDbEntity
  8
0
100
AcDbLine
 62
2
  6
CONTINUOUS
 10
350.4028758545
 20
366.2903616333
 11
350.6134851685
 21
366.0887608337
  0
LINE
  5
582
100
AcDbEntity
  8
0
100
AcDbLine
 62
2
  6
CONTINUOUS
 10
352.0475585327
 20
365.9623849792
 11
351.8369492187
 21
366.1639857788
  0
LINE
  5
583
100
AcDbEntity
  8
0
100
AcDbLine
 62
2
  6
CONTINUOUS
 10
353.0475292969
 20
365.7173585205
 11
353.4687479248
 21
365.3141569214
  0
LINE
  5
584
100
AcDbEntity
  8
0
100
AcDbLine
 62
2
  6
CONTINUOUS
 10
352.7179613953
 20
366.9231391907
 11
352.9285707092
 21
366.7215127258
  0
LINE
  5
585
100
AcDbEntity
  8
0
100
AcDbLine
 62
2
  6
CONTINUOUS
 10
355.1134049377
 20
364.9861802673
 11
355.3240142517
 21
364.7845538025
  0
LINE
  5
586
100
AcDbEntity
  8
0
100
AcDbLine
 62
2
  6
CONTINUOUS
 10
204.5030554504
 20
473.8134743652
 11
206.2734980164
 21
472.0725982056
  0
LINE
  5
587
100
AcDbEntity
  8
0
100
AcDbLine
 62
2
  6
CONTINUOUS
 10
128.5631269226
 20
587.04259552
 11
128.8331257019
 21
586.7425683594
  0
LINE
  5
588
100
AcDbEntity
  8
0
100
AcDbLine
 62
2
  6
CONTINUOUS
 10
339.4237553406
 20
372.4058853149
 11
340.414691925
 21
371.1932263489
  0
LINE
  5
589
100
AcDbEntity
  8
0
100
AcDbLine
 62
2
  6
CONTINUOUS
 10
350.3353248291
 20
375.8551453857
 11
350.0050126343
 21
376.2593735962
  0
LINE
  5
58A
100
AcDbEntity
  8
0
100
AcDbLine
 62
2
  6
CONTINUOUS
 10
350.7829017029
 20
377.1238829956
 11
351.1132138977
 21
376.7196547852
  0
LINE
  5
58B
100
AcDbEntity
  8
CRV_XY
100
AcDbLine
 62
2
  6
CONTINUOUS
 10
266.8403610013
 20
452.3221212777
 11
321.9058952181
 21
384.3218496502
  0
LINE
  5
58C
100
AcDbEntity
  8
0
100
AcDbLine
 62
2
  6
CONTINUOUS
 10
534.522743042
 20
60.7028173828
 11
534.6727822876
 21
60.4528246918
  0
LINE
  5
58D
100
AcDbEntity
  8
0
100
AcDbLine
 62
2
  6
CONTINUOUS
 10
426.0866391907
 20
192.1894767151
 11
426.243813385
 21
191.6279716492
  0
LINE
  5
58E
100
AcDbEntity
  8
0
100
AcDbLine
 62
2
  6
CONTINUOUS
 10
423.88756073
 20
192.4110194397
 11
423.8089992981
 21
192.6917719727
  0
LINE
  5
58F
100
AcDbEntity
  8
0
100
AcDbLine
 62
2
  6
CONTINUOUS
 10
424.8743652039
 20
191.2714038696
 11
424.7172166748
 21
191.8329089355
  0
LINE
  5
590
100
AcDbEntity
  8
0
100
AcDbLine
 62
2
  6
CONTINUOUS
 10
424.8937168274
 20
193.1111427002
 11
424.9723039246
 21
192.830364502
  0
LWPOLYLINE
  5
591
100
AcDbEntity
  8
0
100
AcDbPolyline
 62
1
  6
CONTINUOUS
 90
2
 70
0
 43
0.5000000193
 10
428.6
 20
582.4999915527
 10
428.6
 20
586.4999915527
  0
LINE
  5
592
100
AcDbEntity
  8
0
100
AcDbLine
 62
2
  6
CONTINUOUS
 10
420.5109590759
 20
189.2042192993
 11
420.5354437561
 21
189.5939466248
  0
LINE
  5
593
100
AcDbEntity
  8
0
100
AcDbLine
 62
2
  6
CONTINUOUS
 10
421.8559225769
 20
189.1710340881
 11
421.8069532166
 21
188.391553772
  0
LINE
  5
594
100
AcDbEntity
  8
0
100
AcDbLine
 62
2
  6
CONTINUOUS
 10
423.8089992981
 20
192.6917719727
 11
423.8334839783
 21
193.0815249634
  0
LINE
  5
595
100
AcDbEntity
  8
0
100
AcDbLine
 62
2
  6
CONTINUOUS
 10
424.7172166748
 20
191.8329089355
 11
424.741701355
 21
192.2226619263
  0
LINE
  5
596
100
AcDbEntity
  8
0
100
AcDbLine
 62
2
  6
CONTINUOUS
 10
424.9723039246
 20
192.830364502
 11
424.9478192444
 21
192.4406371765
  0
LINE
  5
597
100
AcDbEntity
  8
0
100
AcDbLine
 62
2
  6
CONTINUOUS
 10
426.243813385
 20
191.6279716492
 11
426.2193287048
 21
191.2382186584
  0
LINE
  5
598
100
AcDbEntity
  8
0
100
AcDbLine
 62
2
  6
CONTINUOUS
 10
460.0800244751
 20
583.5000164795
 11
460.2150238647
 21
584.999998291
  0
LINE
  5
599
100
AcDbEntity
  8
0
100
AcDbLine
 62
2
  6
CONTINUOUS
 10
263.990356842
 20
138.6859077759
 11
264.2903583374
 21
138.9359132996
  0
LINE
  5
59A
100
AcDbEntity
  8
0
100
AcDbLine
 62
2
  6
CONTINUOUS
 10
264.8903613281
 20
137.6859113464
 11
264.2903583374
 21
137.1859131317
  0
LINE
  5
59B
100
AcDbEntity
  8
0
100
AcDbLine
 62
2
  6
CONTINUOUS
 10
266.3903688049
 20
138.6859077759
 11
266.6903703003
 21
138.9359132996
  0
LINE
  5
59C
100
AcDbEntity
  8
0
100
AcDbLine
 62
2
  6
CONTINUOUS
 10
267.290373291
 20
137.9359168701
 11
266.9903717957
 21
137.6859113464
  0
LINE
  5
59D
100
AcDbEntity
  8
0
100
AcDbLine
 62
2
  6
CONTINUOUS
 10
268.9403686829
 20
138.6859077759
 11
269.2403701782
 21
138.9359132996
  0
LINE
  5
59E
100
AcDbEntity
  8
0
100
AcDbLine
 62
2
  6
CONTINUOUS
 10
267.290373291
 20
136.1859167023
 11
266.9903717957
 21
135.9359111786
  0
LINE
  5
59F
100
AcDbEntity
  8
0
100
AcDbLine
 62
2
  6
CONTINUOUS
 10
269.5403716736
 20
136.1859167023
 11
269.2403701782
 21
135.9359111786
  0
LINE
  5
5A0
100
AcDbEntity
  8
0
100
AcDbLine
 62
2
  6
CONTINUOUS
 10
27.8403614159
 20
53.0867600861
 11
28.0903605232
 21
53.2367608337
  0
LINE
  5
5A1
100
AcDbEntity
  8
0
100
AcDbLine
 62
2
  6
CONTINUOUS
 10
25.3403607178
 20
51.1367631989
 11
25.5903614292
 21
51.2867639465
  0
LINE
  5
5A2
100
AcDbEntity
  8
0
100
AcDbLine
 62
2
  6
CONTINUOUS
 10
27.8403614159
 20
50.5367602081
 11
27.5903623085
 21
50.3867594604
  0
LINE
  5
5A3
100
AcDbEntity
  8
0
100
AcDbLine
 62
2
  6
CONTINUOUS
 10
33.3403610268
 20
53.2411495972
 11
33.5903601341
 21
53.3911503448
  0
LINE
  5
5A4
100
AcDbEntity
  8
0
100
AcDbLine
 62
2
  6
CONTINUOUS
 10
34.5903597717
 20
53.2411495972
 11
35.0903611946
 21
53.5411510925
  0
LINE
  5
5A5
100
AcDbEntity
  8
0
100
AcDbLine
 62
2
  6
CONTINUOUS
 10
35.8403617249
 20
52.3411451111
 11
35.5903594093
 21
52.191157196
  0
LINE
  5
5A6
100
AcDbEntity
  8
0
100
AcDbLine
 62
2
  6
CONTINUOUS
 10
35.8403617249
 20
50.2411474762
 11
36.0903608322
 21
50.3911482239
  0
LINE
  5
5A7
100
AcDbEntity
  8
0
100
AcDbLine
 62
2
  6
CONTINUOUS
 10
33.3403610268
 20
48.291150589
 11
33.5903601341
 21
48.4411513367
  0
LINE
  5
5A8
100
AcDbEntity
  8
0
100
AcDbLine
 62
2
  6
CONTINUOUS
 10
35.8403617249
 20
47.6911540146
 11
35.5903594093
 21
47.5411532669
  0
LINE
  5
5A9
100
AcDbEntity
  8
CRV_XY
100
AcDbLine
 62
2
  6
CONTINUOUS
 10
187.0136531409
 20
260.5507726568
 11
273.1843315295
 21
275.7449882027
  0
LINE
  5
5AA
100
AcDbEntity
  8
5_ALL_CURVE
100
AcDbLine
 62
4
  6
CONTINUOUS
 10
292.6924078592
 20
356.4017551159
 11
299.2979583956
 21
353.8169744712
  0
LINE
  5
5AB
100
AcDbEntity
  8
0
100
AcDbLine
 62
2
  6
CONTINUOUS
 10
344.6826488647
 20
346.7306183167
 11
344.9526989746
 21
346.6207452393
  0
LINE
  5
5AC
100
AcDbEntity
  8
0
100
AcDbLine
 62
2
  6
CONTINUOUS
 10
345.5806514587
 20
350.5310821228
 11
345.8507015686
 21
350.4212347107
  0
LINE
  5
5AD
100
AcDbEntity
  8
0
100
AcDbLine
 62
2
  6
CONTINUOUS
 10
345.4174202576
 20
365.1868571167
 11
345.7727304382
 21
365.0248065186
  0
LINE
  5
5AE
100
AcDbEntity
  8
0
100
AcDbLine
 62
2
  6
CONTINUOUS
 10
352.8642535095
 20
364.112251709
 11
352.5089433289
 21
364.2743023071
  0
LINE
  5
5AF
100
AcDbEntity
  8
0
100
AcDbLine
 62
2
  6
CONTINUOUS
 10
501.5903862305
 20
255.4335339355
 11
501.3403550415
 21
255.5835218506
  0
LINE
  5
5B0
100
AcDbEntity
  8
0
100
AcDbLine
 62
2
  6
CONTINUOUS
 10
502.0903459473
 20
256.6335142517
 11
502.3403771362
 21
256.4835263367
  0
LINE
  5
5B1
100
AcDbEntity
  8
0
100
AcDbLine
 62
2
  6
CONTINUOUS
 10
509.8403375244
 20
252.2364352722
 11
510.0903687134
 21
252.0864473572
  0
LINE
  5
5B2
100
AcDbEntity
  8
0
100
AcDbLine
 62
2
  6
CONTINUOUS
 10
509.8403375244
 20
254.6364472351
 11
510.0903687134
 21
254.4864593201
  0
LINE
  5
5B3
100
AcDbEntity
  8
0
100
AcDbLine
 62
2
  6
CONTINUOUS
 10
511.3403706665
 20
254.7864351501
 11
511.8403817139
 21
254.4864593201
  0
LINE
  5
5B4
100
AcDbEntity
  8
0
100
AcDbLine
 62
2
  6
CONTINUOUS
 10
501.5903862305
 20
262.783532074
 11
501.3403550415
 21
262.933519989
  0
LINE
  5
5B5
100
AcDbEntity
  8
0
100
AcDbLine
 62
2
  6
CONTINUOUS
 10
501.8403660889
 20
254.2335279541
 11
502.0903459473
 21
254.0835143738
  0
LINE
  5
5B6
100
AcDbEntity
  8
0
100
AcDbLine
 62
2
  6
CONTINUOUS
 10
503.3403479004
 20
254.3835158691
 11
503.8403589478
 21
254.0835143738
  0
LINE
  5
5B7
100
AcDbEntity
  8
0
100
AcDbLine
 62
2
  6
CONTINUOUS
 10
502.840336853
 20
255.8835233459
 11
503.3403479004
 21
255.5835218506
  0
LINE
  5
5B8
100
AcDbEntity
  8
0
100
AcDbLine
 62
2
  6
CONTINUOUS
 10
511.3403706665
 20
252.3864488525
 11
511.8403817139
 21
252.0864473572
  0
LINE
  5
5B9
100
AcDbEntity
  8
0
100
AcDbLine
 62
2
  6
CONTINUOUS
 10
503.5903790894
 20
259.0335262146
 11
503.8403589478
 21
258.8835126343
  0
LINE
  5
5BA
100
AcDbEntity
  8
0
100
AcDbLine
 62
2
  6
CONTINUOUS
 10
509.8403375244
 20
257.036459198
 11
510.0903687134
 21
256.8864456177
  0
LINE
  5
5BB
100
AcDbEntity
  8
0
100
AcDbLine
 62
2
  6
CONTINUOUS
 10
511.3403706665
 20
257.186447113
 11
511.8403817139
 21
256.8864456177
  0
LINE
  5
5BC
100
AcDbEntity
  8
0
100
AcDbLine
 62
2
  6
CONTINUOUS
 10
503.5903790894
 20
263.6835365601
 11
503.8403589478
 21
263.5335229797
  0
LINE
  5
5BD
100
AcDbEntity
  8
0
100
AcDbLine
 62
2
  6
CONTINUOUS
 10
511.5903505249
 20
261.8364574585
 11
511.8403817139
 21
261.6864438782
  0
LINE
  5
5BE
100
AcDbEntity
  8
0
100
AcDbLine
 62
2
  6
CONTINUOUS
 10
348.4918388672
 20
374.81878125
 11
348.726265564
 21
374.6454379272
  0
LINE
  5
5BF
100
AcDbEntity
  8
0
100
AcDbLine
 62
2
  6
CONTINUOUS
 10
350.5697515259
 20
375.681802063
 11
350.3353248291
 21
375.8551453857
  0
LINE
  5
5C0
100
AcDbEntity
  8
0
100
AcDbLine
 62
2
  6
CONTINUOUS
 10
350.1649073486
 20
378.2207658691
 11
350.3993340454
 21
378.0474225464
  0
LINE
  5
5C1
100
AcDbEntity
  8
0
100
AcDbLine
 62
2
  6
CONTINUOUS
 10
339.221333252
 20
373.6753415527
 11
339.4557342834
 21
373.50199823
  0
LINE
  5
5C2
100
AcDbEntity
  8
0
100
AcDbLine
 62
2
  6
CONTINUOUS
 10
357.1391144104
 20
365.5398317566
 11
356.7178957825
 21
365.943059021
  0
LINE
  5
5C3
100
AcDbEntity
  8
0
100
AcDbLine
 62
2
  6
CONTINUOUS
 10
356.677703949
 20
367.2279144287
 11
356.467094635
 21
367.4295408936
  0
LINE
  5
5C4
100
AcDbEntity
  8
0
100
AcDbLine
 62
2
  6
CONTINUOUS
 10
357.6777003784
 20
366.9829136353
 11
358.0989190063
 21
366.5796863708
  0
LINE
  5
5C5
100
AcDbEntity
  8
0
100
AcDbLine
 62
2
  6
CONTINUOUS
 10
357.3481324768
 20
368.1886686401
 11
357.5587417908
 21
367.9870678406
  0
LINE
  5
5C6
100
AcDbEntity
  8
0
100
AcDbLine
 62
2
  6
CONTINUOUS
 10
193.9449995728
 20
583.5000164795
 11
193.6750007935
 21
583.7999923096
  0
LINE
  5
5C7
100
AcDbEntity
  8
0
100
AcDbLine
 62
2
  6
CONTINUOUS
 10
194.2149983521
 20
587.0999830933
 11
194.4849971313
 21
586.8000072632
  0
LINE
  5
5C8
100
AcDbEntity
  8
0
100
AcDbLine
 62
2
  6
CONTINUOUS
 10
194.2149983521
 20
585.6000012817
 11
194.4849971313
 21
585.2999741211
  0
LINE
  5
5C9
100
AcDbEntity
  8
0
100
AcDbLine
 62
2
  6
CONTINUOUS
 10
358.4029499512
 20
433.0797954102
 11
359.1613077393
 21
432.0748455811
  0
LINE
  5
5CA
100
AcDbEntity
  8
0
100
AcDbLine
 62
2
  6
CONTINUOUS
 10
356.3947442017
 20
428.0268657837
 11
356.8064923401
 21
427.3823078613
  0
LINE
  5
5CB
100
AcDbEntity
  8
0
100
AcDbLine
 62
2
  6
CONTINUOUS
 10
358.1246099548
 20
429.6904894409
 11
358.5363580933
 21
429.0459315186
  0
LINE
  5
5CC
100
AcDbEntity
  8
0
100
AcDbLine
 62
2
  6
CONTINUOUS
 10
360.5461037598
 20
432.3660438843
 11
360.7845855713
 21
431.9017075806
  0
LINE
  5
5CD
100
AcDbEntity
  8
0
100
AcDbLine
 62
2
  6
CONTINUOUS
 10
326.6749878845
 20
583.7999923096
 11
326.5399884949
 21
584.0999681396
  0
LINE
  5
5CE
100
AcDbEntity
  8
0
100
AcDbLine
 62
2
  6
CONTINUOUS
 10
540.6727608643
 20
60.9528229065
 11
541.8727668457
 21
57.9528207855
  0
LINE
  5
5CF
100
AcDbEntity
  8
0
100
AcDbLine
 62
2
  6
CONTINUOUS
 10
510.0727623291
 20
60.9528229065
 11
510.8227532349
 21
57.9528207855
  0
LINE
  5
5D0
100
AcDbEntity
  8
CRV_Z
100
AcDbLine
 62
2
  6
PHANTOM
 10
466.8403610013
 20
39.7517049101
 11
466.8403610013
 21
44.4017049101
  0
LINE
  5
5D1
100
AcDbEntity
  8
CRV_Z
100
AcDbLine
 62
40
  6
CONTINUOUS
 10
466.8403610013
 20
44.4017049101
 11
466.8403610013
 21
119.4017049101
  0
LINE
  5
5D2
100
AcDbEntity
  8
CRV_Z
100
AcDbLine
 62
2
  6
PHANTOM
 10
466.8403610013
 20
119.4017049101
 11
466.8403610013
 21
122.6517049101
  0
LINE
  5
5D3
100
AcDbEntity
  8
0
100
AcDbLine
 62
2
  6
CONTINUOUS
 10
592.6749877319
 20
586.4999801025
 11
592.8099871216
 21
586.8000072632
  0
LINE
  5
5D4
100
AcDbEntity
  8
0
100
AcDbLine
 62
2
  6
CONTINUOUS
 10
593.4849840698
 20
584.0999681396
 11
593.3499846802
 21
583.7999923096
  0
LINE
  5
5D5
100
AcDbEntity
  8
0
100
AcDbLine
 62
2
  6
CONTINUOUS
 10
18.5903607578
 20
132.9318539429
 11
19.0903605766
 21
133.0818546906
  0
LINE
  5
5D6
100
AcDbEntity
  8
0
100
AcDbLine
 62
2
  6
CONTINUOUS
 10
18.5903607578
 20
127.9818549347
 11
19.0903605766
 21
128.1318556824
  0
LINE
  5
5D7
100
AcDbEntity
  8
0
100
AcDbLine
 62
2
  6
CONTINUOUS
 10
19.5903603954
 20
127.0818632813
 11
19.0903605766
 21
126.9318625336
  0
LINE
  5
5D8
100
AcDbEntity
  8
0
100
AcDbLine
 62
2
  6
CONTINUOUS
 10
502.5903569946
 20
263.6835365601
 11
503.090368042
 21
263.8335244751
  0
LINE
  5
5D9
100
AcDbEntity
  8
0
100
AcDbLine
 62
2
  6
CONTINUOUS
 10
503.5903790894
 20
262.783532074
 11
503.090368042
 21
262.6335184937
  0
LINE
  5
5DA
100
AcDbEntity
  8
0
100
AcDbLine
 62
2
  6
CONTINUOUS
 10
510.5903797607
 20
261.8364574585
 11
511.0903394775
 21
261.9864453735
  0
LINE
  5
5DB
100
AcDbEntity
  8
0
100
AcDbLine
 62
2
  6
CONTINUOUS
 10
502.5903569946
 20
259.0335262146
 11
503.090368042
 21
259.1835141296
  0
LINE
  5
5DC
100
AcDbEntity
  8
0
100
AcDbLine
 62
2
  6
CONTINUOUS
 10
190.4584863434
 20
347.50984198
 11
189.6784670563
 21
347.4702661133
  0
LINE
  5
5DD
100
AcDbEntity
  8
0
100
AcDbLine
 62
2
  6
CONTINUOUS
 10
831.5800197754
 20
332.0000033569
 11
831.0400222168
 21
332.0000033569
  0
LINE
  5
5DE
100
AcDbEntity
  8
0
100
AcDbLine
 62
2
  6
CONTINUOUS
 10
831.0400222168
 20
335.599995636
 11
831.5800197754
 21
335.599995636
  0
LINE
  5
5DF
100
AcDbEntity
  8
CRV_Z
100
AcDbLine
 62
2
  6
PHANTOM
 10
466.8403610013
 20
339.8221212777
 11
66.8403610013
 21
339.8221212777
  0
LINE
  5
5E0
100
AcDbEntity
  8
5_ALL_CURVE
100
AcDbLine
 62
4
  6
CONTINUOUS
 10
266.8403610013
 20
357.3221212777
 11
290.0903057931
 21
356.9162919818
  0
LINE
  5
5E1
100
AcDbEntity
  8
0
100
AcDbLine
 62
2
  6
CONTINUOUS
 10
345.1906418152
 20
350.5508700562
 11
345.5806514587
 21
350.5310821228
  0
LINE
  5
5E2
100
AcDbEntity
  8
0
100
AcDbLine
 62
2
  6
CONTINUOUS
 10
346.0303072205
 20
351.1813120728
 11
346.3803303528
 21
351.1314957581
  0
LINE
  5
5E3
100
AcDbEntity
  8
0
100
AcDbLine
 62
2
  6
CONTINUOUS
 10
346.5297792969
 20
352.1815908203
 11
346.1797561646
 21
352.231407135
  0
LINE
  5
5E4
100
AcDbEntity
  8
DTM_CRV
100
AcDbLine
 62
4
  6
CONTINUOUS
 10
247.327130728
 20
415.3181719169
 11
247.3402634966
 21
415.3141020499
  0
LINE
  5
5E5
100
AcDbEntity
  8
0
100
AcDbLine
 62
2
  6
CONTINUOUS
 10
338.8483653564
 20
373.7911433105
 11
339.221333252
 21
373.6753415527
  0
LINE
  5
5E6
100
AcDbEntity
  8
0
100
AcDbLine
 62
2
  6
CONTINUOUS
 10
350.9426937561
 20
375.5660003052
 11
350.5697515259
 21
375.681802063
  0
LINE
  5
5E7
100
AcDbEntity
  8
0
100
AcDbLine
 62
2
  6
CONTINUOUS
 10
349.7919651184
 20
378.336567627
 11
350.1649073486
 21
378.2207658691
  0
LINE
  5
5E8
100
AcDbEntity
  8
DTM_CRV
100
AcDbLine
 62
4
  6
CONTINUOUS
 10
247.3140531961
 20
415.3224167535
 11
247.327130728
 21
415.3181719169
  0
LINE
  5
5E9
100
AcDbEntity
  8
DTM_CRV
100
AcDbLine
 62
4
  6
CONTINUOUS
 10
247.3010314662
 20
415.3268363959
 11
247.3140531961
 21
415.3224167535
  0
LINE
  5
5EA
100
AcDbEntity
  8
DTM_CRV
100
AcDbLine
 62
4
  6
CONTINUOUS
 10
247.288069908
 20
415.331429305
 11
247.3010314662
 21
415.3268363959
  0
LINE
  5
5EB
100
AcDbEntity
  8
DTM_CRV
100
AcDbLine
 62
4
  6
CONTINUOUS
 10
247.2751712219
 20
415.3361944418
 11
247.288069908
 21
415.331429305
  0
LINE
  5
5EC
100
AcDbEntity
  8
DTM_CRV
100
AcDbLine
 62
4
  6
CONTINUOUS
 10
247.2623381084
 20
415.3411307675
 11
247.2751712219
 21
415.3361944418
  0
LINE
  5
5ED
100
AcDbEntity
  8
0
100
AcDbLine
 62
2
  6
CONTINUOUS
 10
350.0475913391
 20
366.4524122314
 11
350.4028758545
 21
366.2903616333
  0
LINE
  5
5EE
100
AcDbEntity
  8
0
100
AcDbLine
 62
2
  6
CONTINUOUS
 10
352.4028430481
 20
365.8003087158
 11
352.0475585327
 21
365.9623849792
  0
LINE
  5
5EF
100
AcDbEntity
  8
0
100
AcDbLine
 62
2
  6
CONTINUOUS
 10
352.6922447815
 20
365.8794091187
 11
353.0475292969
 21
365.7173585205
  0
LINE
  5
5F0
100
AcDbEntity
  8
0
100
AcDbLine
 62
2
  6
CONTINUOUS
 10
352.3626768799
 20
367.0851897888
 11
352.7179613953
 21
366.9231391907
  0
LINE
  5
5F1
100
AcDbEntity
  8
0
100
AcDbLine
 62
2
  6
CONTINUOUS
 10
357.4943989258
 20
365.3777811584
 11
357.1391144104
 21
365.5398317566
  0
LINE
  5
5F2
100
AcDbEntity
  8
0
100
AcDbLine
 62
2
  6
CONTINUOUS
 10
357.0330141296
 20
367.0658638306
 11
356.677703949
 21
367.2279144287
  0
LINE
  5
5F3
100
AcDbEntity
  8
0
100
AcDbLine
 62
2
  6
CONTINUOUS
 10
357.3223901978
 20
367.1449642334
 11
357.6777003784
 21
366.9829136353
  0
LINE
  5
5F4
100
AcDbEntity
  8
0
100
AcDbLine
 62
2
  6
CONTINUOUS
 10
356.9928222961
 20
368.3507449036
 11
357.3481324768
 21
368.1886686401
  0
LINE
  5
5F5
100
AcDbEntity
  8
0
100
AcDbLine
 62
2
  6
CONTINUOUS
 10
355.0766265869
 20
425.7187355347
 11
352.9971226807
 21
427.8810356445
  0
LINE
  5
5F6
100
AcDbEntity
  8
0
100
AcDbLine
 62
2
  6
CONTINUOUS
 10
354.2086523743
 20
428.3524555664
 11
354.5552363586
 21
427.9920636597
  0
LINE
  5
5F7
100
AcDbEntity
  8
0
100
AcDbLine
 62
2
  6
CONTINUOUS
 10
355.9385181274
 20
430.0160792236
 11
356.2851021118
 21
429.6556873169
  0
LINE
  5
5F8
100
AcDbEntity
  8
0
100
AcDbLine
 62
2
  6
CONTINUOUS
 10
357.6683838806
 20
431.6796515503
 11
358.014967865
 21
431.3192596436
  0
LINE
  5
5F9
100
AcDbEntity
  8
0
100
AcDbLine
 62
2
  6
CONTINUOUS
 10
502.0903459473
 20
254.0835143738
 11
502.3403771362
 21
253.7835128784
  0
LINE
  5
5FA
100
AcDbEntity
  8
0
100
AcDbLine
 62
2
  6
CONTINUOUS
 10
502.3403771362
 20
257.9835338135
 11
502.0903459473
 21
258.2835353088
  0
LINE
  5
5FB
100
AcDbEntity
  8
0
100
AcDbLine
 62
2
  6
CONTINUOUS
 10
509.3403778076
 20
251.1864428711
 11
509.0903466187
 21
251.4864443665
  0
LINE
  5
5FC
100
AcDbEntity
  8
0
100
AcDbLine
 62
2
  6
CONTINUOUS
 10
509.3403778076
 20
253.586454834
 11
509.0903466187
 21
253.8864563293
  0
LINE
  5
5FD
100
AcDbEntity
  8
0
100
AcDbLine
 62
2
  6
CONTINUOUS
 10
509.3403778076
 20
255.9864411316
 11
509.0903466187
 21
256.286442627
  0
LINE
  5
5FE
100
AcDbEntity
  8
0
100
AcDbLine
 62
2
  6
CONTINUOUS
 10
501.3403550415
 20
253.183535553
 11
501.0903751831
 21
253.4835370483
  0
LINE
  5
5FF
100
AcDbEntity
  8
0
100
AcDbLine
 62
2
  6
CONTINUOUS
 10
501.3403550415
 20
255.5835218506
 11
501.0903751831
 21
255.8835233459
  0
LINE
  5
600
100
AcDbEntity
  8
0
100
AcDbLine
 62
2
  6
CONTINUOUS
 10
503.8403589478
 20
254.0835143738
 11
504.0903388062
 21
253.7835128784
  0
LINE
  5
601
100
AcDbEntity
  8
0
100
AcDbLine
 62
2
  6
CONTINUOUS
 10
502.3403771362
 20
256.4835263367
 11
502.840336853
 21
255.8835233459
  0
LINE
  5
602
100
AcDbEntity
  8
0
100
AcDbLine
 62
2
  6
CONTINUOUS
 10
503.8403589478
 20
258.8835126343
 11
504.0903388062
 21
258.5835368042
  0
LINE
  5
603
100
AcDbEntity
  8
0
100
AcDbLine
 62
2
  6
CONTINUOUS
 10
510.0903687134
 20
252.0864473572
 11
510.3403485718
 21
251.7864458618
  0
LINE
  5
604
100
AcDbEntity
  8
0
100
AcDbLine
 62
2
  6
CONTINUOUS
 10
501.3403550415
 20
262.933519989
 11
501.0903751831
 21
263.2335214844
  0
LINE
  5
605
100
AcDbEntity
  8
0
100
AcDbLine
 62
2
  6
CONTINUOUS
 10
511.8403817139
 20
252.0864473572
 11
512.0903615723
 21
251.7864458618
  0
LINE
  5
606
100
AcDbEntity
  8
0
100
AcDbLine
 62
2
  6
CONTINUOUS
 10
510.0903687134
 20
254.4864593201
 11
510.3403485718
 21
254.1864578247
  0
LINE
  5
607
100
AcDbEntity
  8
0
100
AcDbLine
 62
2
  6
CONTINUOUS
 10
503.8403589478
 20
263.5335229797
 11
504.0903388062
 21
263.2335214844
  0
LINE
  5
608
100
AcDbEntity
  8
0
100
AcDbLine
 62
2
  6
CONTINUOUS
 10
511.8403817139
 20
254.4864593201
 11
512.0903615723
 21
254.1864578247
  0
LINE
  5
609
100
AcDbEntity
  8
0
100
AcDbLine
 62
2
  6
CONTINUOUS
 10
510.0903687134
 20
256.8864456177
 11
510.3403485718
 21
256.5864441223
  0
LINE
  5
60A
100
AcDbEntity
  8
0
100
AcDbLine
 62
2
  6
CONTINUOUS
 10
511.8403817139
 20
256.8864456177
 11
512.0903615723
 21
256.5864441223
  0
LINE
  5
60B
100
AcDbEntity
  8
0
100
AcDbLine
 62
2
  6
CONTINUOUS
 10
510.3403485718
 20
260.7864393921
 11
510.0903687134
 21
261.0864408875
  0
LINE
  5
60C
100
AcDbEntity
  8
0
100
AcDbLine
 62
2
  6
CONTINUOUS
 10
511.8403817139
 20
261.6864438782
 11
512.0903615723
 21
261.3864423828
  0
LINE
  5
60D
100
AcDbEntity
  8
0
100
AcDbLine
 62
2
  6
CONTINUOUS
 10
502.5903569946
 20
262.783532074
 11
502.3403771362
 21
263.2335214844
  0
LINE
  5
60E
100
AcDbEntity
  8
0
100
AcDbLine
 62
2
  6
CONTINUOUS
 10
327.4850098877
 20
585.6000012817
 11
327.6200092773
 21
585.2999741211
  0
LINE
  5
60F
100
AcDbEntity
  8
0
100
AcDbLine
 62
2
  6
CONTINUOUS
 10
435.4946850586
 20
414.0361552734
 11
435.982736084
 21
412.9398883667
  0
LINE
  5
610
100
AcDbEntity
  8
0
100
AcDbLine
 62
2
  6
CONTINUOUS
 10
434.8235379028
 20
415.543477356
 11
434.7015251465
 21
415.8175825806
  0
LINE
  5
611
100
AcDbEntity
  8
0
100
AcDbLine
 62
2
  6
CONTINUOUS
 10
402.4141882324
 20
502.3061478271
 11
402.5064549255
 21
502.0295787354
  0
LINE
  5
612
100
AcDbEntity
  8
0
100
AcDbLine
 62
2
  6
CONTINUOUS
 10
404.4741608582
 20
505.4793007812
 11
404.381894165
 21
505.755869873
  0
LINE
  5
613
100
AcDbEntity
  8
0
100
AcDbLine
 62
2
  6
CONTINUOUS
 10
406.5785600891
 20
504.8616400757
 11
406.6708267822
 21
504.5850709839
  0
LINE
  5
614
100
AcDbEntity
  8
0
100
AcDbLine
 62
2
  6
CONTINUOUS
 10
406.0355596924
 20
507.3019465332
 11
405.9432929993
 21
507.578515625
  0
LINE
  5
615
100
AcDbEntity
  8
0
100
AcDbLine
 62
2
  6
CONTINUOUS
 10
408.1399589233
 20
506.6842858276
 11
408.2322256165
 21
506.4077167358
  0
LINE
  5
616
100
AcDbEntity
  8
0
100
AcDbLine
 62
2
  6
CONTINUOUS
 10
528.5227644653
 20
60.9528229065
 11
529.2727553711
 21
58.4528190002
  0
LINE
  5
617
100
AcDbEntity
  8
0
100
AcDbLine
 62
2
  6
CONTINUOUS
 10
522.072770813
 20
60.9528229065
 11
522.8227617187
 21
57.9528207855
  0
LINE
  5
618
100
AcDbEntity
  8
0
100
AcDbLine
 62
2
  6
CONTINUOUS
 10
538.8727518921
 20
60.9528229065
 11
539.6227427979
 21
57.9528207855
  0
LINE
  5
619
100
AcDbEntity
  8
0
100
AcDbLine
 62
2
  6
CONTINUOUS
 10
393.1749942627
 20
584.0999681396
 11
393.039994873
 21
584.6999711304
  0
LINE
  5
61A
100
AcDbEntity
  8
0
100
AcDbLine
 62
2
  6
CONTINUOUS
 10
393.9849906006
 20
585.2999741211
 11
394.1199899902
 21
584.6999711304
  0
LINE
  5
61B
100
AcDbEntity
  8
0
100
AcDbLine
 62
2
  6
CONTINUOUS
 10
520.2727618408
 20
60.2028191681
 11
520.4227497559
 21
59.4528282623
  0
LWPOLYLINE
  5
61C
100
AcDbEntity
  8
0
100
AcDbPolyline
 62
1
  6
CONTINUOUS
 90
2
 70
0
 43
0.5000000193
 10
495.6
 20
586.4999915527
 10
495.6
 20
582.4999915527
  0
LINE
  5
61D
100
AcDbEntity
  8
0
100
AcDbLine
 62
2
  6
CONTINUOUS
 10
501.0903751831
 20
259.0335262146
 11
501.0903751831
 21
258.1335217285
  0
LINE
  5
61E
100
AcDbEntity
  8
0
100
AcDbLine
 62
2
  6
CONTINUOUS
 10
501.0903751831
 20
253.4835370483
 11
501.0903751831
 21
253.7835128784
  0
LINE
  5
61F
100
AcDbEntity
  8
0
100
AcDbLine
 62
2
  6
CONTINUOUS
 10
501.0903751831
 20
255.8835233459
 11
501.0903751831
 21
256.1835248413
  0
LINE
  5
620
100
AcDbEntity
  8
0
100
AcDbLine
 62
2
  6
CONTINUOUS
 10
502.0903459473
 20
258.2835353088
 11
502.0903459473
 21
258.5835368042
  0
LINE
  5
621
100
AcDbEntity
  8
0
100
AcDbLine
 62
2
  6
CONTINUOUS
 10
502.3403771362
 20
253.4835370483
 11
502.3403771362
 21
253.7835128784
  0
LINE
  5
622
100
AcDbEntity
  8
0
100
AcDbLine
 62
2
  6
CONTINUOUS
 10
504.0903388062
 20
260.8335351868
 11
504.0903388062
 21
260.6835216064
  0
LINE
  5
623
100
AcDbEntity
  8
0
100
AcDbLine
 62
2
  6
CONTINUOUS
 10
504.0903388062
 20
258.5835368042
 11
504.0903388062
 21
258.2835353088
  0
LINE
  5
624
100
AcDbEntity
  8
0
100
AcDbLine
 62
2
  6
CONTINUOUS
 10
504.0903388062
 20
253.7835128784
 11
504.0903388062
 21
253.4835370483
  0
LINE
  5
625
100
AcDbEntity
  8
0
100
AcDbLine
 62
2
  6
CONTINUOUS
 10
504.0903388062
 20
255.4335339355
 11
504.0903388062
 21
256.6335142517
  0
LINE
  5
626
100
AcDbEntity
  8
0
100
AcDbLine
 62
2
  6
CONTINUOUS
 10
506.9227594604
 20
60.9528229065
 11
506.9227594604
 21
57.9528207855
  0
LINE
  5
627
100
AcDbEntity
  8
0
100
AcDbLine
 62
2
  6
CONTINUOUS
 10
508.1227654419
 20
59.9528264771
 11
508.1227654419
 21
60.7028173828
  0
LINE
  5
628
100
AcDbEntity
  8
0
100
AcDbLine
 62
2
  6
CONTINUOUS
 10
508.2727533569
 20
58.4528190002
 11
508.2727533569
 21
59.2028227386
  0
LINE
  5
629
100
AcDbEntity
  8
0
100
AcDbLine
 62
2
  6
CONTINUOUS
 10
509.0903466187
 20
261.8364574585
 11
509.0903466187
 21
260.9364529724
  0
LINE
  5
62A
100
AcDbEntity
  8
0
100
AcDbLine
 62
2
  6
CONTINUOUS
 10
509.0903466187
 20
251.4864443665
 11
509.0903466187
 21
251.7864458618
  0
LINE
  5
62B
100
AcDbEntity
  8
0
100
AcDbLine
 62
2
  6
CONTINUOUS
 10
509.0903466187
 20
253.8864563293
 11
509.0903466187
 21
254.1864578247
  0
LINE
  5
62C
100
AcDbEntity
  8
0
100
AcDbLine
 62
2
  6
CONTINUOUS
 10
509.0903466187
 20
256.286442627
 11
509.0903466187
 21
256.5864441223
  0
LINE
  5
62D
100
AcDbEntity
  8
0
100
AcDbLine
 62
2
  6
CONTINUOUS
 10
510.0903687134
 20
261.0864408875
 11
510.0903687134
 21
261.3864423828
  0
LINE
  5
62E
100
AcDbEntity
  8
0
100
AcDbLine
 62
2
  6
CONTINUOUS
 10
510.3403485718
 20
251.4864443665
 11
510.3403485718
 21
251.7864458618
  0
LINE
  5
62F
100
AcDbEntity
  8
0
100
AcDbLine
 62
2
  6
CONTINUOUS
 10
510.3403485718
 20
253.8864563293
 11
510.3403485718
 21
254.1864578247
  0
LINE
  5
630
100
AcDbEntity
  8
0
100
AcDbLine
 62
2
  6
CONTINUOUS
 10
510.3403485718
 20
256.286442627
 11
510.3403485718
 21
256.5864441223
  0
LINE
  5
631
100
AcDbEntity
  8
0
100
AcDbLine
 62
2
  6
CONTINUOUS
 10
511.8727713013
 20
60.4528246918
 11
511.8727713013
 21
60.2028191681
  0
LINE
  5
632
100
AcDbEntity
  8
0
100
AcDbLine
 62
2
  6
CONTINUOUS
 10
512.0903615723
 20
261.3864423828
 11
512.0903615723
 21
261.0864408875
  0
LINE
  5
633
100
AcDbEntity
  8
0
100
AcDbLine
 62
2
  6
CONTINUOUS
 10
512.0903615723
 20
258.8364425049
 11
512.0903615723
 21
258.6864545898
  0
LINE
  5
634
100
AcDbEntity
  8
0
100
AcDbLine
 62
2
  6
CONTINUOUS
 10
512.0903615723
 20
256.5864441223
 11
512.0903615723
 21
256.286442627
  0
LINE
  5
635
100
AcDbEntity
  8
0
100
AcDbLine
 62
2
  6
CONTINUOUS
 10
512.0903615723
 20
254.1864578247
 11
512.0903615723
 21
253.8864563293
  0
LINE
  5
636
100
AcDbEntity
  8
0
100
AcDbLine
 62
2
  6
CONTINUOUS
 10
512.0903615723
 20
251.7864458618
 11
512.0903615723
 21
251.4864443665
  0
LINE
  5
637
100
AcDbEntity
  8
0
100
AcDbLine
 62
2
  6
CONTINUOUS
 10
502.3403771362
 20
263.2335214844
 11
502.5903569946
 21
263.6835365601
  0
LINE
  5
638
100
AcDbEntity
  8
0
100
AcDbLine
 62
2
  6
CONTINUOUS
 10
501.0903751831
 20
263.2335214844
 11
501.3403550415
 21
263.5335229797
  0
LINE
  5
639
100
AcDbEntity
  8
0
100
AcDbLine
 62
2
  6
CONTINUOUS
 10
504.0903388062
 20
263.2335214844
 11
503.8403589478
 21
262.933519989
  0
LINE
  5
63A
100
AcDbEntity
  8
0
100
AcDbLine
 62
2
  6
CONTINUOUS
 10
502.0903459473
 20
258.5835368042
 11
502.3403771362
 21
258.8835126343
  0
LINE
  5
63B
100
AcDbEntity
  8
0
100
AcDbLine
 62
2
  6
CONTINUOUS
 10
501.0903751831
 20
256.1835248413
 11
501.3403550415
 21
256.4835263367
  0
LINE
  5
63C
100
AcDbEntity
  8
0
100
AcDbLine
 62
2
  6
CONTINUOUS
 10
504.0903388062
 20
258.2835353088
 11
503.8403589478
 21
257.9835338135
  0
LINE
  5
63D
100
AcDbEntity
  8
0
100
AcDbLine
 62
2
  6
CONTINUOUS
 10
501.0903751831
 20
253.7835128784
 11
501.3403550415
 21
254.0835143738
  0
LINE
  5
63E
100
AcDbEntity
  8
0
100
AcDbLine
 62
2
  6
CONTINUOUS
 10
502.3403771362
 20
253.7835128784
 11
502.5903569946
 21
254.0835143738
  0
LINE
  5
63F
100
AcDbEntity
  8
0
100
AcDbLine
 62
2
  6
CONTINUOUS
 10
510.0903687134
 20
261.3864423828
 11
510.3403485718
 21
261.6864438782
  0
LINE
  5
640
100
AcDbEntity
  8
0
100
AcDbLine
 62
2
  6
CONTINUOUS
 10
798.4130822754
 20
586.7936936035
 11
798.6830810547
 21
587.0936694336
  0
LINE
  5
641
100
AcDbEntity
  8
0
100
AcDbLine
 62
2
  6
CONTINUOUS
 10
798.953079834
 20
585.2936604614
 11
798.6830810547
 21
584.9936846313
  0
LINE
  5
642
100
AcDbEntity
  8
0
100
AcDbLine
 62
2
  6
CONTINUOUS
 10
799.2230786133
 20
585.5936876221
 11
798.953079834
 21
585.2936604614
  0
LINE
  5
643
100
AcDbEntity
  8
0
100
AcDbLine
 62
2
  6
CONTINUOUS
 10
424.4672368164
 20
189.3854675293
 11
424.3641907043
 21
189.2764670715
  0
LINE
  5
644
100
AcDbEntity
  8
0
100
AcDbLine
 62
2
  6
CONTINUOUS
 10
424.7314352417
 20
195.122633606
 11
424.3878797607
 21
194.7593415222
  0
LINE
  5
645
100
AcDbEntity
  8
0
100
AcDbLine
 62
2
  6
CONTINUOUS
 10
423.8334839783
 20
193.0815249634
 11
424.0396018677
 21
193.2995002136
  0
LINE
  5
646
100
AcDbEntity
  8
0
100
AcDbLine
 62
2
  6
CONTINUOUS
 10
420.5354437561
 20
189.5939466248
 11
420.7415873108
 21
189.811921875
  0
LINE
  5
647
100
AcDbEntity
  8
0
100
AcDbLine
 62
2
  6
CONTINUOUS
 10
425.1144639282
 20
194.0722562256
 11
425.4579937439
 21
194.4355483093
  0
LINE
  5
648
100
AcDbEntity
  8
0
100
AcDbLine
 62
2
  6
CONTINUOUS
 10
424.741701355
 20
192.2226619263
 11
424.9478192444
 21
192.4406371765
  0
LINE
  5
649
100
AcDbEntity
  8
0
100
AcDbLine
 62
2
  6
CONTINUOUS
 10
422.4059809265
 20
187.2057406921
 11
423.2305038147
 21
188.0776160278
  0
LINE
  5
64A
100
AcDbEntity
  8
0
100
AcDbLine
 62
2
  6
CONTINUOUS
 10
426.2193287048
 20
191.2382186584
 11
426.0131851501
 21
191.0202434082
  0
LINE
  5
64B
100
AcDbEntity
  8
0
100
AcDbLine
 62
2
  6
CONTINUOUS
 10
503.8403589478
 20
260.6835216064
 11
504.0903388062
 21
260.8335351868
  0
LINE
  5
64C
100
AcDbEntity
  8
0
100
AcDbLine
 62
2
  6
CONTINUOUS
 10
502.3403771362
 20
258.8835126343
 11
502.5903569946
 21
259.0335262146
  0
LINE
  5
64D
100
AcDbEntity
  8
0
100
AcDbLine
 62
2
  6
CONTINUOUS
 10
503.8403589478
 20
257.9835338135
 11
503.5903790894
 21
257.8335202332
  0
LINE
  5
64E
100
AcDbEntity
  8
0
100
AcDbLine
 62
2
  6
CONTINUOUS
 10
509.3403778076
 20
256.8864456177
 11
509.590357666
 21
257.036459198
  0
LINE
  5
64F
100
AcDbEntity
  8
0
100
AcDbLine
 62
2
  6
CONTINUOUS
 10
503.8403589478
 20
253.183535553
 11
503.5903790894
 21
253.0335219727
  0
LINE
  5
650
100
AcDbEntity
  8
0
100
AcDbLine
 62
2
  6
CONTINUOUS
 10
501.3403550415
 20
263.5335229797
 11
501.5903862305
 21
263.6835365601
  0
LINE
  5
651
100
AcDbEntity
  8
0
100
AcDbLine
 62
2
  6
CONTINUOUS
 10
503.8403589478
 20
262.933519989
 11
503.5903790894
 21
262.783532074
  0
LINE
  5
652
100
AcDbEntity
  8
0
100
AcDbLine
 62
2
  6
CONTINUOUS
 10
501.3403550415
 20
256.4835263367
 11
501.5903862305
 21
256.6335142517
  0
LINE
  5
653
100
AcDbEntity
  8
0
100
AcDbLine
 62
2
  6
CONTINUOUS
 10
510.3403485718
 20
261.6864438782
 11
510.5903797607
 21
261.8364574585
  0
LINE
  5
654
100
AcDbEntity
  8
0
100
AcDbLine
 62
2
  6
CONTINUOUS
 10
511.8403817139
 20
260.7864393921
 11
511.5903505249
 21
260.6364514771
  0
LINE
  5
655
100
AcDbEntity
  8
0
100
AcDbLine
 62
2
  6
CONTINUOUS
 10
501.3403550415
 20
254.0835143738
 11
501.5903862305
 21
254.2335279541
  0
LINE
  5
656
100
AcDbEntity
  8
0
100
AcDbLine
 62
2
  6
CONTINUOUS
 10
502.5903569946
 20
254.0835143738
 11
503.090368042
 21
254.3835158691
  0
LINE
  5
657
100
AcDbEntity
  8
0
100
AcDbLine
 62
2
  6
CONTINUOUS
 10
511.8403817139
 20
258.6864545898
 11
512.0903615723
 21
258.8364425049
  0
LINE
  5
658
100
AcDbEntity
  8
0
100
AcDbLine
 62
2
  6
CONTINUOUS
 10
510.5903797607
 20
256.8864456177
 11
511.0903394775
 21
257.186447113
  0
LINE
  5
659
100
AcDbEntity
  8
0
100
AcDbLine
 62
2
  6
CONTINUOUS
 10
511.8403817139
 20
255.9864411316
 11
511.5903505249
 21
255.8364532166
  0
LINE
  5
65A
100
AcDbEntity
  8
0
100
AcDbLine
 62
2
  6
CONTINUOUS
 10
509.3403778076
 20
254.4864593201
 11
509.590357666
 21
254.6364472351
  0
LINE
  5
65B
100
AcDbEntity
  8
0
100
AcDbLine
 62
2
  6
CONTINUOUS
 10
510.5903797607
 20
254.4864593201
 11
511.0903394775
 21
254.7864351501
  0
LINE
  5
65C
100
AcDbEntity
  8
0
100
AcDbLine
 62
2
  6
CONTINUOUS
 10
511.8403817139
 20
253.586454834
 11
511.5903505249
 21
253.4364412537
  0
LINE
  5
65D
100
AcDbEntity
  8
0
100
AcDbLine
 62
2
  6
CONTINUOUS
 10
509.3403778076
 20
252.0864473572
 11
509.590357666
 21
252.2364352722
  0
LINE
  5
65E
100
AcDbEntity
  8
0
100
AcDbLine
 62
2
  6
CONTINUOUS
 10
510.5903797607
 20
252.0864473572
 11
511.0903394775
 21
252.3864488525
  0
LINE
  5
65F
100
AcDbEntity
  8
0
100
AcDbLine
 62
2
  6
CONTINUOUS
 10
511.8403817139
 20
251.1864428711
 11
511.5903505249
 21
251.0364549561
  0
LINE
  5
660
100
AcDbEntity
  8
0
100
AcDbLine
 62
2
  6
CONTINUOUS
 10
17.5903611202
 20
84.7517010498
 11
18.090360939
 21
84.9017017975
  0
LINE
  5
661
100
AcDbEntity
  8
0
100
AcDbLine
 62
2
  6
CONTINUOUS
 10
19.5903603954
 20
83.8517093964
 11
19.0903605766
 21
83.7017086487
  0
LINE
  5
662
100
AcDbEntity
  8
0
100
AcDbLine
 62
2
  6
CONTINUOUS
 10
18.5903607578
 20
82.5017026672
 11
19.0903605766
 21
82.6517034149
  0
LINE
  5
663
100
AcDbEntity
  8
0
100
AcDbLine
 62
2
  6
CONTINUOUS
 10
355.3240142517
 20
364.7845538025
 11
355.1793390503
 21
364.7450036011
  0
LINE
  5
664
100
AcDbEntity
  8
0
100
AcDbLine
 62
2
  6
CONTINUOUS
 10
345.8128966064
 20
363.7399511108
 11
345.0894436035
 21
363.5422001038
  0
LINE
  5
665
100
AcDbEntity
  8
0
100
AcDbLine
 62
2
  6
CONTINUOUS
 10
357.0330141296
 20
367.0658638306
 11
357.3223901978
 21
367.1449642334
  0
LINE
  5
666
100
AcDbEntity
  8
0
100
AcDbLine
 62
2
  6
CONTINUOUS
 10
356.703446228
 20
368.2716445007
 11
356.9928222961
 21
368.3507449036
  0
LINE
  5
667
100
AcDbEntity
  8
0
100
AcDbLine
 62
2
  6
CONTINUOUS
 10
353.1536295776
 20
364.1913264465
 11
352.8642535095
 21
364.112251709
  0
LINE
  5
668
100
AcDbEntity
  8
0
100
AcDbLine
 62
2
  6
CONTINUOUS
 10
350.1150910339
 20
363.3608235474
 11
351.2726209717
 21
363.6771994934
  0
LINE
  5
669
100
AcDbEntity
  8
0
100
AcDbLine
 62
2
  6
CONTINUOUS
 10
357.7838006592
 20
365.4568815613
 11
357.4943989258
 21
365.3777811584
  0
LINE
  5
66A
100
AcDbEntity
  8
0
100
AcDbLine
 62
2
  6
CONTINUOUS
 10
352.4028430481
 20
365.8003087158
 11
352.6922447815
 21
365.8794091187
  0
LINE
  5
66B
100
AcDbEntity
  8
0
100
AcDbLine
 62
2
  6
CONTINUOUS
 10
344.6939672546
 20
364.9891317749
 11
345.4174202576
 21
365.1868571167
  0
LINE
  5
66C
100
AcDbEntity
  8
0
100
AcDbLine
 62
2
  6
CONTINUOUS
 10
349.7581896057
 20
366.3733118286
 11
350.0475913391
 21
366.4524122314
  0
LINE
  5
66D
100
AcDbEntity
  8
0
100
AcDbLine
 62
2
  6
CONTINUOUS
 10
352.0732751465
 20
367.006089386
 11
352.3626768799
 21
367.0851897888
  0
LINE
  5
66E
100
AcDbEntity
  8
0
100
AcDbLine
 62
2
  6
CONTINUOUS
 10
192.258443985
 20
347.4089004211
 11
192.6084671173
 21
347.4587167358
  0
LINE
  5
66F
100
AcDbEntity
  8
0
100
AcDbLine
 62
2
  6
CONTINUOUS
 10
192.4590181732
 20
348.5087861328
 11
192.1089950409
 21
348.4589698181
  0
LINE
  5
670
100
AcDbEntity
  8
0
100
AcDbLine
 62
2
  6
CONTINUOUS
 10
190.3391941071
 20
348.8499034119
 11
190.7292037506
 21
348.8696913452
  0
LINE
  5
671
100
AcDbEntity
  8
5_ALL_CURVE
100
AcDbLine
 62
4
  6
CONTINUOUS
 10
243.5904162094
 20
356.9162919818
 11
266.8403610013
 21
357.3221212777
  0
LWPOLYLINE
  5
672
100
AcDbEntity
  8
0
100
AcDbPolyline
 62
1
  6
CONTINUOUS
 90
2
 70
0
 43
0.5000000193
 10
829.5
 20
368.9999915527
 10
833.3
 20
368.9999915527
  0
LINE
  5
673
100
AcDbEntity
  8
0
100
AcDbLine
 62
2
  6
CONTINUOUS
 10
350.2714182739
 20
377.1821431885
 11
350.7829017029
 21
377.1238829956
  0
LINE
  5
674
100
AcDbEntity
  8
DTM_CRV
100
AcDbLine
 62
4
  6
CONTINUOUS
 10
247.4738763896
 20
415.2832174898
 11
247.4874172168
 21
415.2811194296
  0
LINE
  5
675
100
AcDbEntity
  8
DTM_CRV
100
AcDbLine
 62
4
  6
CONTINUOUS
 10
247.4603609602
 20
415.2854968099
 11
247.4738763896
 21
415.2832174898
  0
LINE
  5
676
100
AcDbEntity
  8
DTM_CRV
100
AcDbLine
 62
4
  6
CONTINUOUS
 10
247.4468771739
 20
415.2879563146
 11
247.4603609602
 21
415.2854968099
  0
LINE
  5
677
100
AcDbEntity
  8
DTM_CRV
100
AcDbLine
 62
4
  6
CONTINUOUS
 10
247.4334273975
 20
415.2905954818
 11
247.4468771739
 21
415.2879563146
  0
LINE
  5
678
100
AcDbEntity
  8
DTM_CRV
100
AcDbLine
 62
4
  6
CONTINUOUS
 10
247.4200139981
 20
415.2934137896
 11
247.4334273975
 21
415.2905954818
  0
LINE
  5
679
100
AcDbEntity
  8
DTM_CRV
100
AcDbLine
 62
4
  6
CONTINUOUS
 10
247.4066176827
 20
415.2964157003
 11
247.4200139981
 21
415.2934137896
  0
LINE
  5
67A
100
AcDbEntity
  8
DTM_CRV
100
AcDbLine
 62
4
  6
CONTINUOUS
 10
247.3932626282
 20
415.2995961541
 11
247.4066176827
 21
415.2964157003
  0
LINE
  5
67B
100
AcDbEntity
  8
DTM_CRV
100
AcDbLine
 62
4
  6
CONTINUOUS
 10
247.3799512257
 20
415.3029544953
 11
247.3932626282
 21
415.2995961541
  0
LINE
  5
67C
100
AcDbEntity
  8
DTM_CRV
100
AcDbLine
 62
4
  6
CONTINUOUS
 10
247.3666858665
 20
415.3064900683
 11
247.3799512257
 21
415.3029544953
  0
LINE
  5
67D
100
AcDbEntity
  8
DTM_CRV
100
AcDbLine
 62
4
  6
CONTINUOUS
 10
247.3534492825
 20
415.3102078635
 11
247.3666858665
 21
415.3064900683
  0
LINE
  5
67E
100
AcDbEntity
  8
DTM_CRV
100
AcDbLine
 62
4
  6
CONTINUOUS
 10
247.3402634966
 20
415.3141020499
 11
247.3534492825
 21
415.3102078635
  0
LINE
  5
67F
100
AcDbEntity
  8
0
100
AcDbLine
 62
2
  6
CONTINUOUS
 10
203.5517075653
 20
471.1269351807
 11
206.3796239624
 21
470.1255271606
  0
LINE
  5
680
100
AcDbEntity
  8
0
100
AcDbLine
 62
2
  6
CONTINUOUS
 10
354.5774624939
 20
427.3197359009
 11
355.9415466309
 21
426.5504960327
  0
LINE
  5
681
100
AcDbEntity
  8
0
100
AcDbLine
 62
2
  6
CONTINUOUS
 10
360.0914176025
 20
432.622491394
 11
360.5461037598
 21
432.3660438843
  0
LINE
  5
682
100
AcDbEntity
  8
0
100
AcDbLine
 62
2
  6
CONTINUOUS
 10
403.1185719299
 20
504.6654546509
 11
404.144182312
 21
502.4042405396
  0
LINE
  5
683
100
AcDbEntity
  8
0
100
AcDbLine
 62
2
  6
CONTINUOUS
 10
436.3002156372
 20
416.5293322144
 11
436.4222797241
 21
416.2552783203
  0
LINE
  5
684
100
AcDbEntity
  8
0
100
AcDbLine
 62
2
  6
CONTINUOUS
 10
438.8407193604
 20
413.2819039307
 11
439.0440910645
 21
412.8251132202
  0
LINE
  5
685
100
AcDbEntity
  8
0
100
AcDbLine
 62
2
  6
CONTINUOUS
 10
437.442166748
 20
417.0377614746
 11
437.5641795044
 21
416.7637075806
  0
LINE
  5
686
100
AcDbEntity
  8
0
100
AcDbLine
 62
2
  6
CONTINUOUS
 10
439.9576211548
 20
413.2318566284
 11
439.7542494507
 21
413.6886473389
  0
LINE
  5
687
100
AcDbEntity
  8
0
100
AcDbLine
 62
2
  6
CONTINUOUS
 10
438.4183201294
 20
414.8452789917
 11
438.5403328857
 21
414.5711737671
  0
LINE
  5
688
100
AcDbEntity
  8
0
100
AcDbLine
 62
2
  6
CONTINUOUS
 10
415.785595459
 20
525.6554472046
 11
415.8837138367
 21
525.3808800049
  0
LINE
  5
689
100
AcDbEntity
  8
0
100
AcDbLine
 62
2
  6
CONTINUOUS
 10
417.777991394
 20
528.8714611816
 11
417.6798986816
 21
529.1460283813
  0
LINE
  5
68A
100
AcDbEntity
  8
0
100
AcDbLine
 62
2
  6
CONTINUOUS
 10
419.8949922791
 20
528.2984067383
 11
419.9930849915
 21
528.0238908691
  0
LINE
  5
68B
100
AcDbEntity
  8
0
100
AcDbLine
 62
2
  6
CONTINUOUS
 10
419.3005073242
 20
530.7267018433
 11
419.2024146118
 21
531.001269043
  0
LINE
  5
68C
100
AcDbEntity
  8
0
100
AcDbLine
 62
2
  6
CONTINUOUS
 10
421.4174825439
 20
530.1536987305
 11
421.5156009216
 21
529.8791315308
  0
LINE
  5
68D
100
AcDbEntity
  8
0
100
AcDbLine
 62
2
  6
CONTINUOUS
 10
513.0727772827
 20
58.952817215
 11
513.0727772827
 21
58.4528190002
  0
LINE
  5
68E
100
AcDbEntity
  8
0
100
AcDbLine
 62
2
  6
CONTINUOUS
 10
514.2727832642
 20
57.9528207855
 11
514.2727832642
 21
60.9528229065
  0
LINE
  5
68F
100
AcDbEntity
  8
0
100
AcDbLine
 62
2
  6
CONTINUOUS
 10
519.0727558594
 20
57.9528207855
 11
519.0727558594
 21
60.9528229065
  0
LINE
  5
690
100
AcDbEntity
  8
0
100
AcDbLine
 62
2
  6
CONTINUOUS
 10
524.4727827759
 20
60.9528229065
 11
524.4727827759
 21
57.9528207855
  0
LINE
  5
691
100
AcDbEntity
  8
0
100
AcDbLine
 62
2
  6
CONTINUOUS
 10
525.9050082397
 20
584.3999953003
 11
525.9050082397
 21
584.6999711304
  0
LINE
  5
692
100
AcDbEntity
  8
0
100
AcDbLine
 62
2
  6
CONTINUOUS
 10
526.0400076294
 20
586.2000042725
 11
526.0400076294
 21
586.4999801025
  0
LINE
  5
693
100
AcDbEntity
  8
0
100
AcDbLine
 62
2
  6
CONTINUOUS
 10
526.2727404175
 20
58.4528190002
 11
526.2727404175
 21
60.9528229065
  0
LINE
  5
694
100
AcDbEntity
  8
0
100
AcDbLine
 62
2
  6
CONTINUOUS
 10
527.1200027466
 20
586.4999801025
 11
527.1200027466
 21
586.2000042725
  0
LINE
  5
695
100
AcDbEntity
  8
0
100
AcDbLine
 62
2
  6
CONTINUOUS
 10
527.2550021362
 20
584.6999711304
 11
527.2550021362
 21
584.3999953003
  0
LINE
  5
696
100
AcDbEntity
  8
0
100
AcDbLine
 62
2
  6
CONTINUOUS
 10
527.4727463989
 20
60.9528229065
 11
527.4727463989
 21
58.4528190002
  0
LINE
  5
697
100
AcDbEntity
  8
0
100
AcDbLine
 62
2
  6
CONTINUOUS
 10
528.5227644653
 20
57.9528207855
 11
528.5227644653
 21
60.9528229065
  0
LINE
  5
698
100
AcDbEntity
  8
0
100
AcDbLine
 62
2
  6
CONTINUOUS
 10
530.0227462769
 20
60.9528229065
 11
530.0227462769
 21
57.9528207855
  0
LINE
  5
699
100
AcDbEntity
  8
0
100
AcDbLine
 62
2
  6
CONTINUOUS
 10
533.4727763062
 20
57.9528207855
 11
533.4727763062
 21
60.9528229065
  0
LINE
  5
69A
100
AcDbEntity
  8
0
100
AcDbLine
 62
2
  6
CONTINUOUS
 10
534.6727822876
 20
60.4528246918
 11
534.6727822876
 21
59.9528264771
  0
LINE
  5
69B
100
AcDbEntity
  8
0
100
AcDbLine
 62
2
  6
CONTINUOUS
 10
535.872788269
 20
60.9528229065
 11
535.872788269
 21
57.9528207855
  0
LINE
  5
69C
100
AcDbEntity
  8
0
100
AcDbLine
 62
2
  6
CONTINUOUS
 10
540.6727608643
 20
57.9528207855
 11
540.6727608643
 21
60.9528229065
  0
LINE
  5
69D
100
AcDbEntity
  8
0
100
AcDbLine
 62
2
  6
CONTINUOUS
 10
592.5399883423
 20
585.8999771118
 11
592.6749877319
 21
586.4999801025
  0
LINE
  5
69E
100
AcDbEntity
  8
0
100
AcDbLine
 62
2
  6
CONTINUOUS
 10
593.6199834595
 20
585.8999771118
 11
593.4849840698
 21
585.2999741211
  0
LINE
  5
69F
100
AcDbEntity
  8
0
100
AcDbLine
 62
2
  6
CONTINUOUS
 10
593.6199834595
 20
584.6999711304
 11
593.4849840698
 21
584.0999681396
  0
LINE
  5
6A0
100
AcDbEntity
  8
0
100
AcDbLine
 62
2
  6
CONTINUOUS
 10
661.3350100098
 20
586.4999801025
 11
661.4700093994
 21
586.8000072632
  0
LINE
  5
6A1
100
AcDbEntity
  8
0
100
AcDbLine
 62
2
  6
CONTINUOUS
 10
662.1450063477
 20
584.0999681396
 11
662.010006958
 21
583.7999923096
  0
LINE
  5
6A2
100
AcDbEntity
  8
0
100
AcDbLine
 62
2
  6
CONTINUOUS
 10
504.0903388062
 20
253.4835370483
 11
503.8403589478
 21
253.183535553
  0
LINE
  5
6A3
100
AcDbEntity
  8
0
100
AcDbLine
 62
2
  6
CONTINUOUS
 10
512.0903615723
 20
261.0864408875
 11
511.8403817139
 21
260.7864393921
  0
LINE
  5
6A4
100
AcDbEntity
  8
0
100
AcDbLine
 62
2
  6
CONTINUOUS
 10
509.0903466187
 20
256.5864441223
 11
509.3403778076
 21
256.8864456177
  0
LINE
  5
6A5
100
AcDbEntity
  8
0
100
AcDbLine
 62
2
  6
CONTINUOUS
 10
510.3403485718
 20
256.5864441223
 11
510.5903797607
 21
256.8864456177
  0
LINE
  5
6A6
100
AcDbEntity
  8
0
100
AcDbLine
 62
2
  6
CONTINUOUS
 10
509.0903466187
 20
254.1864578247
 11
509.3403778076
 21
254.4864593201
  0
LINE
  5
6A7
100
AcDbEntity
  8
0
100
AcDbLine
 62
2
  6
CONTINUOUS
 10
510.3403485718
 20
254.1864578247
 11
510.5903797607
 21
254.4864593201
  0
LINE
  5
6A8
100
AcDbEntity
  8
0
100
AcDbLine
 62
2
  6
CONTINUOUS
 10
512.0903615723
 20
256.286442627
 11
511.8403817139
 21
255.9864411316
  0
LINE
  5
6A9
100
AcDbEntity
  8
0
100
AcDbLine
 62
2
  6
CONTINUOUS
 10
509.0903466187
 20
251.7864458618
 11
509.3403778076
 21
252.0864473572
  0
LINE
  5
6AA
100
AcDbEntity
  8
0
100
AcDbLine
 62
2
  6
CONTINUOUS
 10
510.3403485718
 20
251.7864458618
 11
510.5903797607
 21
252.0864473572
  0
LINE
  5
6AB
100
AcDbEntity
  8
0
100
AcDbLine
 62
2
  6
CONTINUOUS
 10
512.0903615723
 20
253.8864563293
 11
511.8403817139
 21
253.586454834
  0
LINE
  5
6AC
100
AcDbEntity
  8
0
100
AcDbLine
 62
2
  6
CONTINUOUS
 10
512.0903615723
 20
251.4864443665
 11
511.8403817139
 21
251.1864428711
  0
LINE
  5
6AD
100
AcDbEntity
  8
0
100
AcDbLine
 62
2
  6
CONTINUOUS
 10
436.2408261719
 20
414.2041602173
 11
435.4946850586
 21
414.0361552734
  0
LINE
  5
6AE
100
AcDbEntity
  8
DTM_CRV
100
AcDbLine
 62
4
  6
CONTINUOUS
 10
286.0570234117
 20
415.2701572191
 11
286.0706717158
 21
415.2704310385
  0
LINE
  5
6AF
100
AcDbEntity
  8
DTM_CRV
100
AcDbLine
 62
4
  6
CONTINUOUS
 10
286.0433736283
 20
415.2700659098
 11
286.0570234117
 21
415.2701572191
  0
LINE
  5
6B0
100
AcDbEntity
  8
0
100
AcDbLine
 62
2
  6
CONTINUOUS
 10
831.715019165
 20
402.0000100708
 11
831.4450203857
 21
402.0000100708
  0
LINE
  5
6B1
100
AcDbEntity
  8
0
100
AcDbLine
 62
2
  6
CONTINUOUS
 10
831.4450203857
 20
405.5999766846
 11
831.715019165
 21
405.5999766846
  0
LINE
  5
6B2
100
AcDbEntity
  8
DTM_CRV
100
AcDbLine
 62
4
  6
CONTINUOUS
 10
247.6373483742
 20
415.2700659098
 11
286.0433736283
 21
415.2700659098
  0
LINE
  5
6B3
100
AcDbEntity
  8
DTM_CRV
100
AcDbLine
 62
4
  6
CONTINUOUS
 10
247.6236989191
 20
415.2701572147
 11
247.6373483742
 21
415.2700659098
  0
LINE
  5
6B4
100
AcDbEntity
  8
DTM_CRV
100
AcDbLine
 62
4
  6
CONTINUOUS
 10
247.6100509432
 20
415.2704310209
 11
247.6236989191
 21
415.2701572147
  0
LINE
  5
6B5
100
AcDbEntity
  8
DTM_CRV
100
AcDbLine
 62
4
  6
CONTINUOUS
 10
247.5964073265
 20
415.2708871656
 11
247.6100509432
 21
415.2704310209
  0
LINE
  5
6B6
100
AcDbEntity
  8
DTM_CRV
100
AcDbLine
 62
4
  6
CONTINUOUS
 10
247.5827709489
 20
415.2715254861
 11
247.5964073265
 21
415.2708871656
  0
LINE
  5
6B7
100
AcDbEntity
  8
DTM_CRV
100
AcDbLine
 62
4
  6
CONTINUOUS
 10
247.5691048532
 20
415.2723484585
 11
247.5827709489
 21
415.2715254861
  0
LINE
  5
6B8
100
AcDbEntity
  8
DTM_CRV
100
AcDbLine
 62
4
  6
CONTINUOUS
 10
247.5554512499
 20
415.2733542199
 11
247.5691048532
 21
415.2723484585
  0
LINE
  5
6B9
100
AcDbEntity
  8
DTM_CRV
100
AcDbLine
 62
4
  6
CONTINUOUS
 10
247.5418124534
 20
415.2745424826
 11
247.5554512499
 21
415.2733542199
  0
LINE
  5
6BA
100
AcDbEntity
  8
DTM_CRV
100
AcDbLine
 62
4
  6
CONTINUOUS
 10
247.5281907776
 20
415.2759129587
 11
247.5418124534
 21
415.2745424826
  0
LINE
  5
6BB
100
AcDbEntity
  8
DTM_CRV
100
AcDbLine
 62
4
  6
CONTINUOUS
 10
247.5145768585
 20
415.2774667551
 11
247.5281907776
 21
415.2759129587
  0
LINE
  5
6BC
100
AcDbEntity
  8
0
100
AcDbLine
 62
2
  6
CONTINUOUS
 10
437.8098475952
 20
413.7533751831
 11
437.5204458618
 21
413.7886906128
  0
LINE
  5
6BD
100
AcDbEntity
  8
0
100
AcDbLine
 62
2
  6
CONTINUOUS
 10
436.8196296387
 20
414.1334780273
 11
436.2408261719
 21
414.2041602173
  0
LINE
  5
6BE
100
AcDbEntity
  8
0
100
AcDbLine
 62
2
  6
CONTINUOUS
 10
435.7527751465
 20
415.300427124
 11
435.1739716797
 21
415.371109314
  0
LINE
  5
6BF
100
AcDbEntity
  8
0
100
AcDbLine
 62
2
  6
CONTINUOUS
 10
437.7785359497
 20
415.0530137939
 11
438.0679376831
 21
415.0176470337
  0
LINE
  5
6C0
100
AcDbEntity
  8
0
100
AcDbLine
 62
2
  6
CONTINUOUS
 10
437.0620639038
 20
416.0475435181
 11
436.7726621704
 21
416.0829102783
  0
LINE
  5
6C1
100
AcDbEntity
  8
DTM_CRV
100
AcDbLine
 62
4
  6
CONTINUOUS
 10
247.5009848557
 20
415.2792023817
 11
247.5145768585
 21
415.2774667551
  0
LINE
  5
6C2
100
AcDbEntity
  8
DTM_CRV
100
AcDbLine
 62
4
  6
CONTINUOUS
 10
247.4874172168
 20
415.2811194296
 11
247.5009848557
 21
415.2792023817
  0
LINE
  5
6C3
100
AcDbEntity
  8
0
100
AcDbLine
 62
2
  6
CONTINUOUS
 10
353.9272325439
 20
428.4286814575
 11
354.2086523743
 21
428.3524555664
  0
LINE
  5
6C4
100
AcDbEntity
  8
0
100
AcDbLine
 62
2
  6
CONTINUOUS
 10
355.6570982971
 20
430.0923051147
 11
355.9385181274
 21
430.0160792236
  0
LINE
  5
6C5
100
AcDbEntity
  8
0
100
AcDbLine
 62
2
  6
CONTINUOUS
 10
357.3869640503
 20
431.7558774414
 11
357.6683838806
 21
431.6796515503
  0
LINE
  5
6C6
100
AcDbEntity
  8
0
100
AcDbLine
 62
2
  6
CONTINUOUS
 10
360.2010596924
 20
430.9936698608
 11
359.9196398621
 21
431.069895752
  0
LINE
  5
6C7
100
AcDbEntity
  8
0
100
AcDbLine
 62
2
  6
CONTINUOUS
 10
359.8099977722
 20
432.6987172852
 11
360.0914176025
 21
432.622491394
  0
LINE
  5
6C8
100
AcDbEntity
  8
0
100
AcDbLine
 62
2
  6
CONTINUOUS
 10
207.3309846802
 20
472.8120150146
 11
204.5030554504
 21
473.8134743652
  0
LINE
  5
6C9
100
AcDbEntity
  8
0
100
AcDbLine
 62
2
  6
CONTINUOUS
 10
205.153978363
 20
475.6516219482
 11
207.9819075928
 21
474.6501625977
  0
LINE
  5
6CA
100
AcDbEntity
  8
0
100
AcDbLine
 62
2
  6
CONTINUOUS
 10
205.0832320099
 20
476.9496693115
 11
205.5545492706
 21
476.7827936401
  0
LINE
  5
6CB
100
AcDbEntity
  8
0
100
AcDbLine
 62
2
  6
CONTINUOUS
 10
205.888351944
 20
477.7254281616
 11
205.4170346832
 21
477.892303833
  0
LINE
  5
6CC
100
AcDbEntity
  8
0
100
AcDbLine
 62
2
  6
CONTINUOUS
 10
439.0440910645
 20
412.8251132202
 11
439.3741466064
 21
412.6984293823
  0
LINE
  5
6CD
100
AcDbEntity
  8
0
100
AcDbLine
 62
2
  6
CONTINUOUS
 10
439.7542494507
 20
413.6886473389
 11
439.4241939087
 21
413.8153311768
  0
LINE
  5
6CE
100
AcDbEntity
  8
0
100
AcDbLine
 62
2
  6
CONTINUOUS
 10
329.8766549683
 20
471.0905931396
 11
330.1957770996
 21
470.9383980103
  0
LINE
  5
6CF
100
AcDbEntity
  8
0
100
AcDbLine
 62
2
  6
CONTINUOUS
 10
330.6524138184
 20
471.8957130737
 11
330.333291687
 21
472.0479595337
  0
LINE
  5
6D0
100
AcDbEntity
  8
0
100
AcDbLine
 62
2
  6
CONTINUOUS
 10
435.1739716797
 20
415.371109314
 11
434.8235379028
 21
415.543477356
  0
LINE
  5
6D1
100
AcDbEntity
  8
0
100
AcDbLine
 62
2
  6
CONTINUOUS
 10
437.0917329712
 20
417.2101295166
 11
437.442166748
 21
417.0377614746
  0
LINE
  5
6D2
100
AcDbEntity
  8
0
100
AcDbLine
 62
2
  6
CONTINUOUS
 10
437.5204458618
 20
413.7886906128
 11
436.8196296387
 21
414.1334780273
  0
LINE
  5
6D3
100
AcDbEntity
  8
0
100
AcDbLine
 62
2
  6
CONTINUOUS
 10
438.0679376831
 20
415.0176470337
 11
438.4183201294
 21
414.8452789917
  0
LINE
  5
6D4
100
AcDbEntity
  8
0
100
AcDbLine
 62
2
  6
CONTINUOUS
 10
436.7726621704
 20
416.0829102783
 11
436.4222797241
 21
416.2552783203
  0
LINE
  5
6D5
100
AcDbEntity
  8
0
100
AcDbLine
 62
2
  6
CONTINUOUS
 10
404.7562993164
 20
505.0401164551
 11
404.4741608582
 21
505.4793007812
  0
LINE
  5
6D6
100
AcDbEntity
  8
0
100
AcDbLine
 62
2
  6
CONTINUOUS
 10
406.2964216309
 20
505.3008244019
 11
406.5785600891
 21
504.8616400757
  0
LINE
  5
6D7
100
AcDbEntity
  8
0
100
AcDbLine
 62
2
  6
CONTINUOUS
 10
406.3176981506
 20
506.8627108765
 11
406.0355596924
 21
507.3019465332
  0
LINE
  5
6D8
100
AcDbEntity
  8
0
100
AcDbLine
 62
2
  6
CONTINUOUS
 10
407.8578204651
 20
507.1234701538
 11
408.1399589233
 21
506.6842858276
  0
LINE
  5
6D9
100
AcDbEntity
  8
0
100
AcDbLine
 62
2
  6
CONTINUOUS
 10
416.4399318542
 20
528.0291265869
 11
417.5131256714
 21
525.7900872803
  0
LINE
  5
6DA
100
AcDbEntity
  8
0
100
AcDbLine
 62
2
  6
CONTINUOUS
 10
393.3099936523
 20
583.7999923096
 11
393.1749942627
 21
584.0999681396
  0
LINE
  5
6DB
100
AcDbEntity
  8
0
100
AcDbLine
 62
2
  6
CONTINUOUS
 10
393.8499912109
 20
586.8000072632
 11
393.9849906006
 21
586.4999801025
  0
LINE
  5
6DC
100
AcDbEntity
  8
0
100
AcDbLine
 62
2
  6
CONTINUOUS
 10
541.8727668457
 20
57.9528207855
 11
541.8727668457
 21
60.9528229065
  0
LINE
  5
6DD
100
AcDbEntity
  8
0
100
AcDbLine
 62
2
  6
CONTINUOUS
 10
543.0727728271
 20
57.9528207855
 11
543.0727728271
 21
60.9528229065
  0
LWPOLYLINE
  5
6DE
100
AcDbEntity
  8
0
100
AcDbPolyline
 62
1
  6
CONTINUOUS
 90
2
 70
0
 43
0.5000000193
 10
562.4
 20
586.4999915527
 10
562.4
 20
582.4999915527
  0
LINE
  5
6DF
100
AcDbEntity
  8
0
100
AcDbLine
 62
2
  6
CONTINUOUS
 10
520.4227497559
 20
59.4528282623
 11
520.2727618408
 21
58.7028245239
  0
LINE
  5
6E0
100
AcDbEntity
  8
0
100
AcDbLine
 62
2
  6
CONTINUOUS
 10
509.3227714233
 20
57.9528207855
 11
510.0727623291
 21
60.9528229065
  0
LINE
  5
6E1
100
AcDbEntity
  8
0
100
AcDbLine
 62
2
  6
CONTINUOUS
 10
25.5903614292
 20
51.2867639465
 11
26.090361248
 21
51.4367646942
  0
LINE
  5
6E2
100
AcDbEntity
  8
0
100
AcDbLine
 62
2
  6
CONTINUOUS
 10
27.5903623085
 20
50.3867594604
 11
27.0903608856
 21
50.2367587128
  0
LINE
  5
6E3
100
AcDbEntity
  8
0
100
AcDbLine
 62
2
  6
CONTINUOUS
 10
33.5903601341
 20
48.4411513367
 11
34.090361557
 21
48.5911520844
  0
LINE
  5
6E4
100
AcDbEntity
  8
0
100
AcDbLine
 62
2
  6
CONTINUOUS
 10
34.5903597717
 20
47.5411532669
 11
34.090361557
 21
47.3911525192
  0
LINE
  5
6E5
100
AcDbEntity
  8
DTM_CRV
100
AcDbLine
 62
4
  6
CONTINUOUS
 10
286.3140369012
 20
415.3064902778
 11
286.3272733356
 21
415.3102080409
  0
LINE
  5
6E6
100
AcDbEntity
  8
DTM_CRV
100
AcDbLine
 62
4
  6
CONTINUOUS
 10
286.3007719285
 20
415.3029547941
 11
286.3140369012
 21
415.3064902778
  0
LINE
  5
6E7
100
AcDbEntity
  8
DTM_CRV
100
AcDbLine
 62
4
  6
CONTINUOUS
 10
286.2874609149
 20
415.299596532
 11
286.3007719285
 21
415.3029547941
  0
LINE
  5
6E8
100
AcDbEntity
  8
DTM_CRV
100
AcDbLine
 62
4
  6
CONTINUOUS
 10
286.2741062516
 20
415.2964161469
 11
286.2874609149
 21
415.299596532
  0
LINE
  5
6E9
100
AcDbEntity
  8
DTM_CRV
100
AcDbLine
 62
4
  6
CONTINUOUS
 10
286.2607103294
 20
415.2934142944
 11
286.2741062516
 21
415.2964161469
  0
LINE
  5
6EA
100
AcDbEntity
  8
DTM_CRV
100
AcDbLine
 62
4
  6
CONTINUOUS
 10
286.2472968334
 20
415.2905959346
 11
286.2607103294
 21
415.2934142944
  0
LINE
  5
6EB
100
AcDbEntity
  8
DTM_CRV
100
AcDbLine
 62
4
  6
CONTINUOUS
 10
286.2338469595
 20
415.2879567181
 11
286.2472968334
 21
415.2905959346
  0
LINE
  5
6EC
100
AcDbEntity
  8
DTM_CRV
100
AcDbLine
 62
4
  6
CONTINUOUS
 10
286.2203630747
 20
415.2854971668
 11
286.2338469595
 21
415.2879567181
  0
LINE
  5
6ED
100
AcDbEntity
  8
DTM_CRV
100
AcDbLine
 62
4
  6
CONTINUOUS
 10
286.206847546
 20
415.2832178027
 11
286.2203630747
 21
415.2854971668
  0
LINE
  5
6EE
100
AcDbEntity
  8
DTM_CRV
100
AcDbLine
 62
4
  6
CONTINUOUS
 10
286.1933065767
 20
415.281119695
 11
286.206847546
 21
415.2832178027
  0
LINE
  5
6EF
100
AcDbEntity
  8
DTM_CRV
100
AcDbLine
 62
4
  6
CONTINUOUS
 10
286.1797387949
 20
415.2792026035
 11
286.1933065767
 21
415.281119695
  0
LINE
  5
6F0
100
AcDbEntity
  8
DTM_CRV
100
AcDbLine
 62
4
  6
CONTINUOUS
 10
286.1661466483
 20
415.2774669371
 11
286.1797387949
 21
415.2792026035
  0
LINE
  5
6F1
100
AcDbEntity
  8
DTM_CRV
100
AcDbLine
 62
4
  6
CONTINUOUS
 10
286.1525325848
 20
415.2759131048
 11
286.1661466483
 21
415.2774669371
  0
LINE
  5
6F2
100
AcDbEntity
  8
DTM_CRV
100
AcDbLine
 62
4
  6
CONTINUOUS
 10
286.1389108974
 20
415.2745426092
 11
286.1525325848
 21
415.2759131048
  0
LINE
  5
6F3
100
AcDbEntity
  8
DTM_CRV
100
AcDbLine
 62
4
  6
CONTINUOUS
 10
286.1252720889
 20
415.2733543275
 11
286.1389108974
 21
415.2745426092
  0
LINE
  5
6F4
100
AcDbEntity
  8
DTM_CRV
100
AcDbLine
 62
4
  6
CONTINUOUS
 10
286.1116184735
 20
415.2723485473
 11
286.1252720889
 21
415.2733543275
  0
LINE
  5
6F5
100
AcDbEntity
  8
0
100
AcDbLine
 62
2
  6
CONTINUOUS
 10
353.5377105408
 20
428.4009116211
 11
353.9272325439
 21
428.4286814575
  0
LINE
  5
6F6
100
AcDbEntity
  8
0
100
AcDbLine
 62
2
  6
CONTINUOUS
 10
355.2675762939
 20
430.0645352783
 11
355.6570982971
 21
430.0923051147
  0
LINE
  5
6F7
100
AcDbEntity
  8
0
100
AcDbLine
 62
2
  6
CONTINUOUS
 10
360.5905816956
 20
431.0214396973
 11
360.2010596924
 21
430.9936698608
  0
LINE
  5
6F8
100
AcDbEntity
  8
0
100
AcDbLine
 62
2
  6
CONTINUOUS
 10
356.9974420471
 20
431.728107605
 11
357.3869640503
 21
431.7558774414
  0
LINE
  5
6F9
100
AcDbEntity
  8
0
100
AcDbLine
 62
2
  6
CONTINUOUS
 10
359.420475769
 20
432.6709474487
 11
359.8099977722
 21
432.6987172852
  0
LINE
  5
6FA
100
AcDbEntity
  8
DTM_CRV
100
AcDbLine
 62
4
  6
CONTINUOUS
 10
286.0979523653
 20
415.2715255564
 11
286.1116184735
 21
415.2723485473
  0
LINE
  5
6FB
100
AcDbEntity
  8
DTM_CRV
100
AcDbLine
 62
4
  6
CONTINUOUS
 10
286.0843156604
 20
415.2708872052
 11
286.0979523653
 21
415.2715255564
  0
LINE
  5
6FC
100
AcDbEntity
  8
DTM_CRV
100
AcDbLine
 62
4
  6
CONTINUOUS
 10
286.0706717158
 20
415.2704310385
 11
286.0843156604
 21
415.2708872052
  0
LWPOLYLINE
  5
6FD
100
AcDbEntity
  8
0
100
AcDbPolyline
 62
1
  6
CONTINUOUS
 90
2
 70
0
 43
0.5000000193
 10
829.5
 20
439.4999915527
 10
833.3
 20
439.4999915527
  0
LINE
  5
6FE
100
AcDbEntity
  8
0
100
AcDbLine
 62
2
  6
CONTINUOUS
 10
403.1523474426
 20
500.0936464233
 11
400.8740402527
 21
502.0453885498
  0
LINE
  5
6FF
100
AcDbEntity
  8
0
100
AcDbLine
 62
2
  6
CONTINUOUS
 10
402.0344703674
 20
502.6314296265
 11
402.4141882324
 21
502.3061478271
  0
LINE
  5
700
100
AcDbEntity
  8
0
100
AcDbLine
 62
2
  6
CONTINUOUS
 10
405.3968791199
 20
502.7137125244
 11
403.1185719299
 21
504.6654546509
  0
LINE
  5
701
100
AcDbEntity
  8
0
100
AcDbLine
 62
2
  6
CONTINUOUS
 10
405.5157350464
 20
504.3895015259
 11
404.7562993164
 21
505.0401164551
  0
LINE
  5
702
100
AcDbEntity
  8
0
100
AcDbLine
 62
2
  6
CONTINUOUS
 10
405.5369859009
 20
505.9513880005
 11
406.2964216309
 21
505.3008244019
  0
LINE
  5
703
100
AcDbEntity
  8
0
100
AcDbLine
 62
2
  6
CONTINUOUS
 10
407.0771338806
 20
506.2121472778
 11
406.3176981506
 21
506.8627108765
  0
LINE
  5
704
100
AcDbEntity
  8
0
100
AcDbLine
 62
2
  6
CONTINUOUS
 10
326.9450123291
 20
583.5000164795
 11
326.6749878845
 21
583.7999923096
  0
LINE
  5
705
100
AcDbEntity
  8
0
100
AcDbLine
 62
2
  6
CONTINUOUS
 10
327.2150111084
 20
585.8999771118
 11
327.4850098877
 21
585.6000012817
  0
LINE
  5
706
100
AcDbEntity
  8
0
100
AcDbLine
 62
2
  6
CONTINUOUS
 10
418.0693693542
 20
528.4383338623
 11
417.777991394
 21
528.8714611816
  0
LINE
  5
707
100
AcDbEntity
  8
0
100
AcDbLine
 62
2
  6
CONTINUOUS
 10
418.842382019
 20
527.8039393921
 11
418.5510297241
 21
528.2370667114
  0
LINE
  5
708
100
AcDbEntity
  8
0
100
AcDbLine
 62
2
  6
CONTINUOUS
 10
419.5918596191
 20
530.2935745239
 11
419.3005073242
 21
530.7267018433
  0
LINE
  5
709
100
AcDbEntity
  8
0
100
AcDbLine
 62
2
  6
CONTINUOUS
 10
421.126130249
 20
530.5868260498
 11
421.4174825439
 21
530.1536987305
  0
LINE
  5
70A
100
AcDbEntity
  8
0
100
AcDbLine
 62
2
  6
CONTINUOUS
 10
419.6036399841
 20
528.7315853882
 11
419.8949922791
 21
528.2984067383
  0
LINE
  5
70B
100
AcDbEntity
  8
0
100
AcDbLine
 62
2
  6
CONTINUOUS
 10
593.6199834595
 20
585.8999771118
 11
593.6199834595
 21
584.6999711304
  0
LINE
  5
70C
100
AcDbEntity
  8
0
100
AcDbLine
 62
2
  6
CONTINUOUS
 10
661.2000106201
 20
585.8999771118
 11
661.3350100098
 21
586.4999801025
  0
LINE
  5
70D
100
AcDbEntity
  8
0
100
AcDbLine
 62
2
  6
CONTINUOUS
 10
662.2800057373
 20
584.6999711304
 11
662.1450063477
 21
584.0999681396
  0
LINE
  5
70E
100
AcDbEntity
  8
0
100
AcDbLine
 62
2
  6
CONTINUOUS
 10
521.3227799072
 20
57.9528207855
 11
522.072770813
 21
60.9528229065
  0
LINE
  5
70F
100
AcDbEntity
  8
0
100
AcDbLine
 62
2
  6
CONTINUOUS
 10
538.1227609863
 20
57.9528207855
 11
538.8727518921
 21
60.9528229065
  0
LINE
  5
710
100
AcDbEntity
  8
0
100
AcDbLine
 62
2
  6
CONTINUOUS
 10
529.2727553711
 20
58.4528190002
 11
530.0227462769
 21
60.9528229065
  0
LINE
  5
711
100
AcDbEntity
  8
0
100
AcDbLine
 62
2
  6
CONTINUOUS
 10
97.6932900162
 20
413.5440491333
 11
97.4038946991
 21
413.508682373
  0
LINE
  5
712
100
AcDbEntity
  8
0
100
AcDbLine
 62
2
  6
CONTINUOUS
 10
96.7516564407
 20
417.5755518188
 11
97.0410517578
 21
417.6109185791
  0
LINE
  5
713
100
AcDbEntity
  8
0
100
AcDbLine
 62
2
  6
CONTINUOUS
 10
96.9174220886
 20
414.8746400757
 11
97.4962127228
 21
414.9453222656
  0
LINE
  5
714
100
AcDbEntity
  8
0
100
AcDbLine
 62
2
  6
CONTINUOUS
 10
95.7754902267
 20
415.3830693359
 11
96.0648855438
 21
415.4183847656
  0
LINE
  5
715
100
AcDbEntity
  8
0
100
AcDbLine
 62
2
  6
CONTINUOUS
 10
830.9050228271
 20
472.0000167847
 11
831.8500185547
 21
472.0000167847
  0
LINE
  5
716
100
AcDbEntity
  8
0
100
AcDbLine
 62
2
  6
CONTINUOUS
 10
830.9050228271
 20
474.1000015869
 11
831.8500185547
 21
474.1000015869
  0
LINE
  5
717
100
AcDbEntity
  8
0
100
AcDbLine
 62
2
  6
CONTINUOUS
 10
831.8500185547
 20
475.5999833984
 11
830.9050228271
 21
475.5999833984
  0
LINE
  5
718
100
AcDbEntity
  8
0
100
AcDbLine
 62
2
  6
CONTINUOUS
 10
328.8104677734
 20
474.8503518066
 11
326.3390293274
 21
475.089090271
  0
LINE
  5
719
100
AcDbEntity
  8
0
100
AcDbLine
 62
2
  6
CONTINUOUS
 10
402.5011422119
 20
501.6391071167
 11
403.9330596924
 21
501.0049692993
  0
LINE
  5
71A
100
AcDbEntity
  8
0
100
AcDbLine
 62
2
  6
CONTINUOUS
 10
416.5703884888
 20
523.4590635986
 11
414.2513248291
 21
525.3621956787
  0
LINE
  5
71B
100
AcDbEntity
  8
0
100
AcDbLine
 62
2
  6
CONTINUOUS
 10
415.3991019592
 20
525.9726187744
 11
415.785595459
 21
525.6554472046
  0
LINE
  5
71C
100
AcDbEntity
  8
0
100
AcDbLine
 62
2
  6
CONTINUOUS
 10
418.7589955139
 20
526.1259945068
 11
416.4399318542
 21
528.0291265869
  0
LINE
  5
71D
100
AcDbEntity
  8
0
100
AcDbLine
 62
2
  6
CONTINUOUS
 10
418.842382019
 20
527.8039393921
 11
418.0693693542
 21
528.4383338623
  0
LINE
  5
71E
100
AcDbEntity
  8
0
100
AcDbLine
 62
2
  6
CONTINUOUS
 10
420.3648979492
 20
529.6591800537
 11
419.5918596191
 21
530.2935745239
  0
LINE
  5
71F
100
AcDbEntity
  8
0
100
AcDbLine
 62
2
  6
CONTINUOUS
 10
407.0983847351
 20
507.7740337524
 11
407.8578204651
 21
507.1234701538
  0
LINE
  5
720
100
AcDbEntity
  8
0
100
AcDbLine
 62
2
  6
CONTINUOUS
 10
393.5799924316
 20
583.5000164795
 11
393.3099936523
 21
583.7999923096
  0
LINE
  5
721
100
AcDbEntity
  8
0
100
AcDbLine
 62
2
  6
CONTINUOUS
 10
393.5799924316
 20
587.0999830933
 11
393.8499912109
 21
586.8000072632
  0
LWPOLYLINE
  5
722
100
AcDbEntity
  8
0
100
AcDbPolyline
 62
1
  6
CONTINUOUS
 90
2
 70
0
 43
0.5000000193
 10
629.2
 20
586.4999915527
 10
629.2
 20
582.4999915527
  0
LINE
  5
723
100
AcDbEntity
  8
0
100
AcDbLine
 62
2
  6
CONTINUOUS
 10
507.9727775269
 20
59.7028209534
 11
508.1227654419
 21
59.9528264771
  0
LINE
  5
724
100
AcDbEntity
  8
0
100
AcDbLine
 62
2
  6
CONTINUOUS
 10
507.9727775269
 20
57.9528207855
 11
508.2727533569
 21
58.4528190002
  0
LINE
  5
725
100
AcDbEntity
  8
0
100
AcDbLine
 62
2
  6
CONTINUOUS
 10
512.0227592163
 20
60.7028173828
 11
511.8727713013
 21
60.4528246918
  0
LINE
  5
726
100
AcDbEntity
  8
0
100
AcDbLine
 62
2
  6
CONTINUOUS
 10
520.2727618408
 20
58.7028245239
 11
519.9727860107
 21
58.2028263092
  0
LINE
  5
727
100
AcDbEntity
  8
0
100
AcDbLine
 62
2
  6
CONTINUOUS
 10
513.0727772827
 20
58.4528190002
 11
512.9227380371
 21
58.2028263092
  0
LINE
  5
728
100
AcDbEntity
  8
0
100
AcDbLine
 62
2
  6
CONTINUOUS
 10
401.3619886169
 20
502.6149525146
 11
401.7470191956
 21
502.680142334
  0
LINE
  5
729
100
AcDbEntity
  8
0
100
AcDbLine
 62
2
  6
CONTINUOUS
 10
406.6655140686
 20
504.1945993652
 11
406.28048349
 21
504.1294095459
  0
LINE
  5
72A
100
AcDbEntity
  8
0
100
AcDbLine
 62
2
  6
CONTINUOUS
 10
408.2269129028
 20
506.0172451172
 11
407.8418823242
 21
505.9520552979
  0
LINE
  5
72B
100
AcDbEntity
  8
0
100
AcDbLine
 62
2
  6
CONTINUOUS
 10
404.3872068787
 20
506.1463414917
 11
404.7722374573
 21
506.211531311
  0
LINE
  5
72C
100
AcDbEntity
  8
0
100
AcDbLine
 62
2
  6
CONTINUOUS
 10
401.7470191956
 20
502.680142334
 11
402.0344703674
 21
502.6314296265
  0
LINE
  5
72D
100
AcDbEntity
  8
0
100
AcDbLine
 62
2
  6
CONTINUOUS
 10
406.28048349
 20
504.1294095459
 11
405.9930323181
 21
504.1781222534
  0
LINE
  5
72E
100
AcDbEntity
  8
0
100
AcDbLine
 62
2
  6
CONTINUOUS
 10
407.8418823242
 20
505.9520552979
 11
407.5544311523
 21
506.0007680054
  0
LINE
  5
72F
100
AcDbEntity
  8
0
100
AcDbLine
 62
2
  6
CONTINUOUS
 10
404.7722374573
 20
506.211531311
 11
405.0596886292
 21
506.1627672729
  0
LINE
  5
730
100
AcDbEntity
  8
0
100
AcDbLine
 62
2
  6
CONTINUOUS
 10
406.3336362915
 20
508.034177063
 11
406.6210874634
 21
507.9854130249
  0
LINE
  5
731
100
AcDbEntity
  8
0
100
AcDbLine
 62
2
  6
CONTINUOUS
 10
415.886639679
 20
524.9903570557
 11
417.3316464539
 21
524.3866582642
  0
LINE
  5
732
100
AcDbEntity
  8
0
100
AcDbLine
 62
2
  6
CONTINUOUS
 10
405.9930323181
 20
504.1781222534
 11
405.5157350464
 21
504.3895015259
  0
LINE
  5
733
100
AcDbEntity
  8
0
100
AcDbLine
 62
2
  6
CONTINUOUS
 10
405.0596886292
 20
506.1627672729
 11
405.5369859009
 21
505.9513880005
  0
LINE
  5
734
100
AcDbEntity
  8
0
100
AcDbLine
 62
2
  6
CONTINUOUS
 10
407.5544311523
 20
506.0007680054
 11
407.0771338806
 21
506.2121472778
  0
LINE
  5
735
100
AcDbEntity
  8
0
100
AcDbLine
 62
2
  6
CONTINUOUS
 10
406.6210874634
 20
507.9854130249
 11
407.0983847351
 21
507.7740337524
  0
LINE
  5
736
100
AcDbEntity
  8
0
100
AcDbLine
 62
2
  6
CONTINUOUS
 10
420.3531175842
 20
531.22122052
 11
421.126130249
 21
530.5868260498
  0
LINE
  5
737
100
AcDbEntity
  8
0
100
AcDbLine
 62
2
  6
CONTINUOUS
 10
831.4450203857
 20
120.9999867859
 11
831.1750216064
 21
121.2999882813
  0
LINE
  5
738
100
AcDbEntity
  8
0
100
AcDbLine
 62
2
  6
CONTINUOUS
 10
831.715019165
 20
124.5999918976
 11
831.9850179443
 21
124.2999904022
  0
LINE
  5
739
100
AcDbEntity
  8
0
100
AcDbLine
 62
2
  6
CONTINUOUS
 10
798.2780828857
 20
586.4936664429
 11
798.4130822754
 21
586.7936936035
  0
LINE
  5
73A
100
AcDbEntity
  8
0
100
AcDbLine
 62
2
  6
CONTINUOUS
 10
798.6830810547
 20
584.9936846313
 11
798.4130822754
 21
584.3936816406
  0
LINE
  5
73B
100
AcDbEntity
  8
0
100
AcDbLine
 62
2
  6
CONTINUOUS
 10
799.3580780029
 20
585.8936634521
 11
799.2230786133
 21
585.5936876221
  0
LINE
  5
73C
100
AcDbEntity
  8
0
100
AcDbLine
 62
2
  6
CONTINUOUS
 10
527.4727463989
 20
58.4528190002
 11
527.3227584839
 21
58.2028263092
  0
LINE
  5
73D
100
AcDbEntity
  8
0
100
AcDbLine
 62
2
  6
CONTINUOUS
 10
534.6727822876
 20
59.9528264771
 11
534.522743042
 21
59.7028209534
  0
LINE
  5
73E
100
AcDbEntity
  8
0
100
AcDbLine
 62
2
  6
CONTINUOUS
 10
831.1750216064
 20
405.3000008545
 11
831.4450203857
 21
405.5999766846
  0
LINE
  5
73F
100
AcDbEntity
  8
0
100
AcDbLine
 62
2
  6
CONTINUOUS
 10
831.9850179443
 20
402.2999859009
 11
831.715019165
 21
402.0000100708
  0
LINE
  5
740
100
AcDbEntity
  8
0
100
AcDbLine
 62
2
  6
CONTINUOUS
 10
414.7271078491
 20
525.9419230957
 11
415.1106755066
 21
526.0152744751
  0
LINE
  5
741
100
AcDbEntity
  8
0
100
AcDbLine
 62
2
  6
CONTINUOUS
 10
419.996036499
 20
527.6333679199
 11
419.6124688416
 21
527.5600678711
  0
LINE
  5
742
100
AcDbEntity
  8
0
100
AcDbLine
 62
2
  6
CONTINUOUS
 10
421.5185267639
 20
529.4886599121
 11
421.1349591064
 21
529.4153085327
  0
LINE
  5
743
100
AcDbEntity
  8
0
100
AcDbLine
 62
2
  6
CONTINUOUS
 10
417.6769471741
 20
529.5365
 11
418.0605404968
 21
529.6098000488
  0
LINE
  5
744
100
AcDbEntity
  8
0
100
AcDbLine
 62
2
  6
CONTINUOUS
 10
419.1994631042
 20
531.3917919922
 11
419.5830307617
 21
531.465092041
  0
LINE
  5
745
100
AcDbEntity
  8
0
100
AcDbLine
 62
2
  6
CONTINUOUS
 10
405.9486057129
 20
507.9689872437
 11
406.3336362915
 21
508.034177063
  0
LWPOLYLINE
  5
746
100
AcDbEntity
  8
0
100
AcDbPolyline
 62
1
  6
CONTINUOUS
 90
2
 70
0
 43
0.5000000193
 10
829.5
 20
509.4999915527
 10
833.3
 20
509.4999915527
  0
LINE
  5
747
100
AcDbEntity
  8
0
100
AcDbLine
 62
2
  6
CONTINUOUS
 10
415.1106755066
 20
526.0152744751
 11
415.3991019592
 21
525.9726187744
  0
LINE
  5
748
100
AcDbEntity
  8
0
100
AcDbLine
 62
2
  6
CONTINUOUS
 10
419.6124688416
 20
527.5600678711
 11
419.3240423889
 21
527.6027235718
  0
LINE
  5
749
100
AcDbEntity
  8
0
100
AcDbLine
 62
2
  6
CONTINUOUS
 10
418.0605404968
 20
529.6098000488
 11
418.3489412842
 21
529.5671956787
  0
LINE
  5
74A
100
AcDbEntity
  8
0
100
AcDbLine
 62
2
  6
CONTINUOUS
 10
419.5830307617
 20
531.465092041
 11
419.8714572144
 21
531.4224363403
  0
LINE
  5
74B
100
AcDbEntity
  8
0
100
AcDbLine
 62
2
  6
CONTINUOUS
 10
421.1349591064
 20
529.4153085327
 11
420.8465583191
 21
529.4579642334
  0
LINE
  5
74C
100
AcDbEntity
  8
0
100
AcDbLine
 62
2
  6
CONTINUOUS
 10
419.121953949
 20
528.9328012085
 11
419.6036399841
 21
528.7315853882
  0
LINE
  5
74D
100
AcDbEntity
  8
0
100
AcDbLine
 62
2
  6
CONTINUOUS
 10
419.3240423889
 20
527.6027235718
 11
418.842382019
 21
527.8039393921
  0
LINE
  5
74E
100
AcDbEntity
  8
0
100
AcDbLine
 62
2
  6
CONTINUOUS
 10
420.8465583191
 20
529.4579642334
 11
420.3648979492
 21
529.6591800537
  0
LINE
  5
74F
100
AcDbEntity
  8
0
100
AcDbLine
 62
2
  6
CONTINUOUS
 10
419.8714572144
 20
531.4224363403
 11
420.3531175842
 21
531.22122052
  0
LINE
  5
750
100
AcDbEntity
  8
0
100
AcDbLine
 62
2
  6
CONTINUOUS
 10
393.5799924316
 20
585.6000012817
 11
393.9849906006
 21
585.2999741211
  0
LINE
  5
751
100
AcDbEntity
  8
0
100
AcDbLine
 62
2
  6
CONTINUOUS
 10
526.175007019
 20
583.7999923096
 11
525.9050082397
 21
584.3999953003
  0
LINE
  5
752
100
AcDbEntity
  8
0
100
AcDbLine
 62
2
  6
CONTINUOUS
 10
526.9850033569
 20
585.2999741211
 11
527.2550021362
 21
584.6999711304
  0
LINE
  5
753
100
AcDbEntity
  8
0
100
AcDbLine
 62
2
  6
CONTINUOUS
 10
526.175007019
 20
585.8999771118
 11
526.0400076294
 21
586.2000042725
  0
LINE
  5
754
100
AcDbEntity
  8
0
100
AcDbLine
 62
2
  6
CONTINUOUS
 10
526.9850033569
 20
586.8000072632
 11
527.1200027466
 21
586.4999801025
  0
LINE
  5
755
100
AcDbEntity
  8
0
100
AcDbLine
 62
2
  6
CONTINUOUS
 10
592.6749877319
 20
585.2999741211
 11
592.5399883423
 21
585.8999771118
  0
LINE
  5
756
100
AcDbEntity
  8
0
100
AcDbLine
 62
2
  6
CONTINUOUS
 10
593.4849840698
 20
586.4999801025
 11
593.6199834595
 21
585.8999771118
  0
LINE
  5
757
100
AcDbEntity
  8
0
100
AcDbLine
 62
2
  6
CONTINUOUS
 10
659.5800179443
 20
587.0999830933
 11
659.5800179443
 21
583.5000164795
  0
LINE
  5
758
100
AcDbEntity
  8
0
100
AcDbLine
 62
2
  6
CONTINUOUS
 10
661.2000106201
 20
584.6999711304
 11
661.2000106201
 21
585.8999771118
  0
LINE
  5
759
100
AcDbEntity
  8
0
100
AcDbLine
 62
2
  6
CONTINUOUS
 10
662.2800057373
 20
585.8999771118
 11
662.2800057373
 21
584.6999711304
  0
LINE
  5
75A
100
AcDbEntity
  8
0
100
AcDbLine
 62
2
  6
CONTINUOUS
 10
512.9227380371
 20
58.2028263092
 11
512.622762207
 21
57.9528207855
  0
LINE
  5
75B
100
AcDbEntity
  8
0
100
AcDbLine
 62
2
  6
CONTINUOUS
 10
527.3227584839
 20
58.2028263092
 11
527.0227826538
 21
57.9528207855
  0
LINE
  5
75C
100
AcDbEntity
  8
0
100
AcDbLine
 62
2
  6
CONTINUOUS
 10
512.322786377
 20
60.9528229065
 11
512.0227592163
 21
60.7028173828
  0
LINE
  5
75D
100
AcDbEntity
  8
0
100
AcDbLine
 62
2
  6
CONTINUOUS
 10
519.9727860107
 20
58.2028263092
 11
519.6727588501
 21
57.9528207855
  0
LINE
  5
75E
100
AcDbEntity
  8
0
100
AcDbLine
 62
2
  6
CONTINUOUS
 10
534.522743042
 20
59.7028209534
 11
534.2227672119
 21
59.4528282623
  0
LINE
  5
75F
100
AcDbEntity
  8
0
100
AcDbLine
 62
2
  6
CONTINUOUS
 10
831.1750216064
 20
544.2000002441
 11
831.9850179443
 21
544.2000002441
  0
LWPOLYLINE
  5
760
100
AcDbEntity
  8
0
100
AcDbPolyline
 62
1
  6
CONTINUOUS
 90
2
 70
0
 43
0.5000000193
 10
696.0
 20
582.4999915527
 10
696.0
 20
586.4999915527
  0
LINE
  5
761
100
AcDbEntity
  8
0
100
AcDbLine
 62
2
  6
CONTINUOUS
 10
831.8500185547
 20
332.299979187
 11
831.5800197754
 21
332.0000033569
  0
LWPOLYLINE
  5
762
100
AcDbEntity
  8
0
100
AcDbPolyline
 62
1
  6
CONTINUOUS
 90
2
 70
0
 43
0.5000000193
 10
27.0
 20
582.4999915527
 10
829.5
 20
582.4999915527
  0
LINE
  5
763
100
AcDbEntity
  8
0
100
AcDbLine
 62
2
  6
CONTINUOUS
 10
127.8881299744
 20
583.4425775757
 11
128.9681250916
 21
583.4425775757
  0
LINE
  5
764
100
AcDbEntity
  8
0
100
AcDbLine
 62
2
  6
CONTINUOUS
 10
798.2780828857
 20
583.4937028198
 11
799.3580780029
 21
583.4937028198
  0
LINE
  5
765
100
AcDbEntity
  8
0
100
AcDbLine
 62
2
  6
CONTINUOUS
 10
526.7150045776
 20
583.5000164795
 11
526.4450057983
 21
583.5000164795
  0
LINE
  5
766
100
AcDbEntity
  8
0
100
AcDbLine
 62
2
  6
CONTINUOUS
 10
327.2150111084
 20
583.5000164795
 11
326.9450123291
 21
583.5000164795
  0
LINE
  5
767
100
AcDbEntity
  8
0
100
AcDbLine
 62
2
  6
CONTINUOUS
 10
194.2149983521
 20
583.5000164795
 11
193.9449995728
 21
583.5000164795
  0
LINE
  5
768
100
AcDbEntity
  8
0
100
AcDbLine
 62
2
  6
CONTINUOUS
 10
260.040007782
 20
584.3999953003
 11
261.2550022888
 21
584.3999953003
  0
LINE
  5
769
100
AcDbEntity
  8
0
100
AcDbLine
 62
2
  6
CONTINUOUS
 10
193.9449995728
 20
585.6000012817
 11
194.2149983521
 21
585.6000012817
  0
LINE
  5
76A
100
AcDbEntity
  8
0
100
AcDbLine
 62
2
  6
CONTINUOUS
 10
526.4450057983
 20
585.6000012817
 11
526.7150045776
 21
585.6000012817
  0
LINE
  5
76B
100
AcDbEntity
  8
0
100
AcDbLine
 62
2
  6
CONTINUOUS
 10
326.9450123291
 20
585.8999771118
 11
327.2150111084
 21
585.8999771118
  0
LINE
  5
76C
100
AcDbEntity
  8
0
100
AcDbLine
 62
2
  6
CONTINUOUS
 10
128.2931281433
 20
587.04259552
 11
128.5631269226
 21
587.04259552
  0
LINE
  5
76D
100
AcDbEntity
  8
0
100
AcDbLine
 62
2
  6
CONTINUOUS
 10
798.6830810547
 20
587.0936694336
 11
798.953079834
 21
587.0936694336
  0
LINE
  5
76E
100
AcDbEntity
  8
0
100
AcDbLine
 62
2
  6
CONTINUOUS
 10
460.6200220337
 20
587.0999830933
 11
459.5399755859
 21
587.0999830933
  0
LINE
  5
76F
100
AcDbEntity
  8
0
100
AcDbLine
 62
2
  6
CONTINUOUS
 10
327.6200092773
 20
587.0999830933
 11
326.8099872742
 21
587.0999830933
  0
LINE
  5
770
100
AcDbEntity
  8
0
100
AcDbLine
 62
2
  6
CONTINUOUS
 10
193.9449995728
 20
587.0999830933
 11
194.2149983521
 21
587.0999830933
  0
LINE
  5
771
100
AcDbEntity
  8
0
100
AcDbLine
 62
2
  6
CONTINUOUS
 10
526.4450057983
 20
587.0999830933
 11
526.7150045776
 21
587.0999830933
  0
LINE
  5
772
100
AcDbEntity
  8
0
100
AcDbLine
 62
7
  6
CONTINUOUS
 10
0.0
 20
594.0
 11
841.0
 21
594.0
  0
LINE
  5
773
100
AcDbEntity
  8
0
100
AcDbLine
 62
7
  6
CONTINUOUS
 10
0.0
 20
594.0
 11
841.0
 21
594.0
  0
LINE
  5
774
100
AcDbEntity
  8
0
100
AcDbLine
 62
2
  6
CONTINUOUS
 10
526.4450057983
 20
583.5000164795
 11
526.175007019
 21
583.7999923096
  0
LINE
  5
775
100
AcDbEntity
  8
0
100
AcDbLine
 62
2
  6
CONTINUOUS
 10
526.4450057983
 20
585.6000012817
 11
526.175007019
 21
585.8999771118
  0
LINE
  5
776
100
AcDbEntity
  8
0
100
AcDbLine
 62
2
  6
CONTINUOUS
 10
526.7150045776
 20
587.0999830933
 11
526.9850033569
 21
586.8000072632
  0
LINE
  5
777
100
AcDbEntity
  8
0
100
AcDbLine
 62
2
  6
CONTINUOUS
 10
526.7150045776
 20
585.6000012817
 11
526.9850033569
 21
585.2999741211
  0
LINE
  5
778
100
AcDbEntity
  8
0
100
AcDbLine
 62
2
  6
CONTINUOUS
 10
592.8099871216
 20
583.7999923096
 11
592.6749877319
 21
584.0999681396
  0
LINE
  5
779
100
AcDbEntity
  8
0
100
AcDbLine
 62
2
  6
CONTINUOUS
 10
593.3499846802
 20
586.8000072632
 11
593.4849840698
 21
586.4999801025
  0
LINE
  5
77A
100
AcDbEntity
  8
0
100
AcDbLine
 62
2
  6
CONTINUOUS
 10
726.0799986572
 20
587.0999830933
 11
726.0799986572
 21
583.5000164795
  0
LINE
  5
77B
100
AcDbEntity
  8
0
100
AcDbLine
 62
2
  6
CONTINUOUS
 10
728.2399888916
 20
587.0999830933
 11
728.2399888916
 21
583.5000164795
  0
LINE
  5
77C
100
AcDbEntity
  8
0
100
AcDbLine
 62
2
  6
CONTINUOUS
 10
831.8500185547
 20
474.1000015869
 11
831.9850179443
 21
474.399977417
  0
LINE
  5
77D
100
AcDbEntity
  8
0
100
AcDbLine
 62
2
  6
CONTINUOUS
 10
831.8500185547
 20
472.0000167847
 11
832.120017334
 21
472.5999684448
  0
LINE
  5
77E
100
AcDbEntity
  8
0
100
AcDbLine
 62
2
  6
CONTINUOUS
 10
593.0799859009
 20
583.5000164795
 11
592.8099871216
 21
583.7999923096
  0
LINE
  5
77F
100
AcDbEntity
  8
0
100
AcDbLine
 62
2
  6
CONTINUOUS
 10
593.0799859009
 20
587.0999830933
 11
593.3499846802
 21
586.8000072632
  0
LINE
  5
780
100
AcDbEntity
  8
0
100
AcDbLine
 62
2
  6
CONTINUOUS
 10
831.1750216064
 20
121.2999882813
 11
830.9050228271
 21
121.899991272
  0
LINE
  5
781
100
AcDbEntity
  8
0
100
AcDbLine
 62
2
  6
CONTINUOUS
 10
831.9850179443
 20
124.2999904022
 11
832.120017334
 21
123.9999889069
  0
LINE
  5
782
100
AcDbEntity
  8
0
100
AcDbLine
 62
2
  6
CONTINUOUS
 10
661.3350100098
 20
584.0999681396
 11
661.2000106201
 21
584.6999711304
  0
LINE
  5
783
100
AcDbEntity
  8
0
100
AcDbLine
 62
2
  6
CONTINUOUS
 10
662.1450063477
 20
586.4999801025
 11
662.2800057373
 21
585.8999771118
  0
LWPOLYLINE
  5
784
100
AcDbEntity
  8
0
100
AcDbPolyline
 62
1
  6
CONTINUOUS
 90
2
 70
0
 43
0.5000000193
 10
763.0
 20
586.4999915527
 10
763.0
 20
582.4999915527
  0
LINE
  5
785
100
AcDbEntity
  8
0
100
AcDbLine
 62
2
  6
CONTINUOUS
 10
798.4130822754
 20
584.3936816406
 11
798.2780828857
 21
583.4937028198
  0
LINE
  5
786
100
AcDbEntity
  8
0
100
AcDbLine
 62
2
  6
CONTINUOUS
 10
830.9050228271
 20
404.6999978638
 11
831.0400222168
 21
404.9999736938
  0
LINE
  5
787
100
AcDbEntity
  8
0
100
AcDbLine
 62
2
  6
CONTINUOUS
 10
831.0400222168
 20
404.9999736938
 11
831.1750216064
 21
405.3000008545
  0
LINE
  5
788
100
AcDbEntity
  8
0
100
AcDbLine
 62
2
  6
CONTINUOUS
 10
832.120017334
 20
402.6000130615
 11
831.9850179443
 21
402.2999859009
  0
LINE
  5
789
100
AcDbEntity
  8
0
100
AcDbLine
 62
2
  6
CONTINUOUS
 10
593.0799859009
 20
584.999998291
 11
592.6749877319
 21
585.2999741211
  0
LINE
  5
78A
100
AcDbEntity
  8
0
100
AcDbLine
 62
2
  6
CONTINUOUS
 10
831.5800197754
 20
335.599995636
 11
831.8500185547
 21
335.2999941406
  0
LINE
  5
78B
100
AcDbEntity
  8
0
100
AcDbLine
 62
2
  6
CONTINUOUS
 10
661.4700093994
 20
583.7999923096
 11
661.3350100098
 21
584.0999681396
  0
LINE
  5
78C
100
AcDbEntity
  8
0
100
AcDbLine
 62
2
  6
CONTINUOUS
 10
662.010006958
 20
586.8000072632
 11
662.1450063477
 21
586.4999801025
  0
LINE
  5
78D
100
AcDbEntity
  8
0
100
AcDbLine
 62
2
  6
CONTINUOUS
 10
796.65809021
 20
587.0936694336
 11
796.65809021
 21
583.4937028198
  0
LINE
  5
78E
100
AcDbEntity
  8
0
100
AcDbLine
 62
2
  6
CONTINUOUS
 10
799.3580780029
 20
586.4936664429
 11
799.3580780029
 21
585.8936634521
  0
LINE
  5
78F
100
AcDbEntity
  8
0
100
AcDbLine
 62
2
  6
CONTINUOUS
 10
830.9050228271
 20
542.9999942627
 11
831.5800197754
 21
546.600012207
  0
LINE
  5
790
100
AcDbEntity
  8
0
100
AcDbLine
 62
2
  6
CONTINUOUS
 10
832.120017334
 20
332.8999821777
 11
831.8500185547
 21
332.299979187
  0
LINE
  5
791
100
AcDbEntity
  8
0
100
AcDbLine
 62
2
  6
CONTINUOUS
 10
661.7400081787
 20
583.5000164795
 11
661.4700093994
 21
583.7999923096
  0
LINE
  5
792
100
AcDbEntity
  8
0
100
AcDbLine
 62
2
  6
CONTINUOUS
 10
661.7400081787
 20
587.0999830933
 11
662.010006958
 21
586.8000072632
  0
LINE
  5
793
100
AcDbEntity
  8
0
100
AcDbLine
 62
2
  6
CONTINUOUS
 10
831.4450203857
 20
402.0000100708
 11
831.1750216064
 21
402.2999859009
  0
LINE
  5
794
100
AcDbEntity
  8
0
100
AcDbLine
 62
2
  6
CONTINUOUS
 10
831.715019165
 20
405.5999766846
 11
831.9850179443
 21
405.3000008545
  0
LINE
  5
795
100
AcDbEntity
  8
0
100
AcDbLine
 62
2
  6
CONTINUOUS
 10
830.9050228271
 20
121.899991272
 11
830.7700234375
 21
122.7999957581
  0
LWPOLYLINE
  5
796
100
AcDbEntity
  8
0
100
AcDbPolyline
 62
1
  6
CONTINUOUS
 90
2
 70
0
 43
0.5000000193
 10
829.5
 20
582.4999915527
 10
829.5
 20
17.0000015527
  0
LINE
  5
797
100
AcDbEntity
  8
0
100
AcDbLine
 62
2
  6
CONTINUOUS
 10
830.9050228271
 20
475.5999833984
 11
830.9050228271
 21
472.0000167847
  0
LINE
  5
798
100
AcDbEntity
  8
0
100
AcDbLine
 62
2
  6
CONTINUOUS
 10
831.0400222168
 20
54.5999980164
 11
831.0400222168
 21
51.0000057373
  0
LINE
  5
799
100
AcDbEntity
  8
0
100
AcDbLine
 62
2
  6
CONTINUOUS
 10
831.0400222168
 20
191.9999899292
 11
831.0400222168
 21
195.5999822083
  0
LINE
  5
79A
100
AcDbEntity
  8
0
100
AcDbLine
 62
2
  6
CONTINUOUS
 10
831.0400222168
 20
261.9999966431
 11
831.0400222168
 21
265.5999889221
  0
LINE
  5
79B
100
AcDbEntity
  8
0
100
AcDbLine
 62
2
  6
CONTINUOUS
 10
831.0400222168
 20
332.0000033569
 11
831.0400222168
 21
335.599995636
  0
LINE
  5
79C
100
AcDbEntity
  8
0
100
AcDbLine
 62
2
  6
CONTINUOUS
 10
831.9850179443
 20
474.399977417
 11
831.9850179443
 21
475.3000075684
  0
LINE
  5
79D
100
AcDbEntity
  8
0
100
AcDbLine
 62
2
  6
CONTINUOUS
 10
832.120017334
 20
122.7999957581
 11
832.120017334
 21
121.5999897766
  0
LINE
  5
79E
100
AcDbEntity
  8
0
100
AcDbLine
 62
2
  6
CONTINUOUS
 10
832.120017334
 20
54.5999980164
 11
832.120017334
 21
51.0000057373
  0
LINE
  5
79F
100
AcDbEntity
  8
0
100
AcDbLine
 62
2
  6
CONTINUOUS
 10
832.120017334
 20
472.5999684448
 11
832.120017334
 21
473.4999985962
  0
LINE
  5
7A0
100
AcDbEntity
  8
0
100
AcDbLine
 62
7
  6
CONTINUOUS
 10
841.0
 20
594.0
 11
841.0
 21
0.0
  0
LINE
  5
7A1
100
AcDbEntity
  8
0
100
AcDbLine
 62
7
  6
CONTINUOUS
 10
841.0
 20
0.0
 11
841.0
 21
594.0
  0
LINE
  5
7A2
100
AcDbEntity
  8
0
100
AcDbLine
 62
2
  6
CONTINUOUS
 10
830.7700234375
 20
403.7999677124
 11
830.9050228271
 21
404.6999978638
  0
LINE
  5
7A3
100
AcDbEntity
  8
0
100
AcDbLine
 62
2
  6
CONTINUOUS
 10
832.2550167236
 20
333.7999866638
 11
832.120017334
 21
332.8999821777
  0
LINE
  5
7A4
100
AcDbEntity
  8
0
100
AcDbLine
 62
2
  6
CONTINUOUS
 10
830.7700234375
 20
122.7999957581
 11
830.9050228271
 21
123.6999874115
  0
LINE
  5
7A5
100
AcDbEntity
  8
0
100
AcDbLine
 62
2
  6
CONTINUOUS
 10
830.9050228271
 20
123.6999874115
 11
831.1750216064
 21
124.2999904022
  0
LINE
  5
7A6
100
AcDbEntity
  8
0
100
AcDbLine
 62
2
  6
CONTINUOUS
 10
832.120017334
 20
121.5999897766
 11
831.9850179443
 21
121.2999882813
  0
LINE
  5
7A7
100
AcDbEntity
  8
0
100
AcDbLine
 62
2
  6
CONTINUOUS
 10
831.1750216064
 20
124.2999904022
 11
831.4450203857
 21
124.5999918976
  0
LINE
  5
7A8
100
AcDbEntity
  8
0
100
AcDbLine
 62
2
  6
CONTINUOUS
 10
831.9850179443
 20
121.2999882813
 11
831.715019165
 21
120.9999867859
  0
LINE
  5
7A9
100
AcDbEntity
  8
0
100
AcDbLine
 62
2
  6
CONTINUOUS
 10
798.953079834
 20
587.0936694336
 11
799.2230786133
 21
586.7936936035
  0
LINE
  5
7AA
100
AcDbEntity
  8
0
100
AcDbLine
 62
2
  6
CONTINUOUS
 10
831.8500185547
 20
335.2999941406
 11
832.120017334
 21
334.6999911499
  0
LINE
  5
7AB
100
AcDbEntity
  8
0
100
AcDbLine
 62
2
  6
CONTINUOUS
 10
831.1750216064
 20
402.2999859009
 11
830.9050228271
 21
402.8999888916
  0
LINE
  5
7AC
100
AcDbEntity
  8
0
100
AcDbLine
 62
2
  6
CONTINUOUS
 10
832.120017334
 20
473.4999985962
 11
831.8500185547
 21
474.1000015869
  0
LINE
  5
7AD
100
AcDbEntity
  8
0
100
AcDbLine
 62
2
  6
CONTINUOUS
 10
831.9850179443
 20
475.3000075684
 11
831.8500185547
 21
475.5999833984
  0
LINE
  5
7AE
100
AcDbEntity
  8
0
100
AcDbLine
 62
2
  6
CONTINUOUS
 10
831.9850179443
 20
405.3000008545
 11
832.120017334
 21
404.9999736938
  0
LINE
  5
7AF
100
AcDbEntity
  8
0
100
AcDbLine
 62
2
  6
CONTINUOUS
 10
799.2230786133
 20
586.7936936035
 11
799.3580780029
 21
586.4936664429
  0
LINE
  5
7B0
100
AcDbEntity
  8
0
100
AcDbLine
 62
2
  6
CONTINUOUS
 10
831.5800197754
 20
546.600012207
 11
832.2550167236
 21
542.9999942627
  0
LINE
  5
7B1
100
AcDbEntity
  8
0
100
AcDbLine
 62
2
  6
CONTINUOUS
 10
832.120017334
 20
334.6999911499
 11
832.2550167236
 21
333.7999866638
  0
LINE
  5
7B2
100
AcDbEntity
  8
0
100
AcDbLine
 62
2
  6
CONTINUOUS
 10
830.9050228271
 20
402.8999888916
 11
830.7700234375
 21
403.7999677124
  0
ARC
  5
7B3
100
AcDbEntity
  8
DTM_CRV
100
AcDbCircle
 62
7
  6
CONTINUOUS
 10
187.0136531409
 20
260.5507726568
 40
117.5
100
AcDbArc
 50
224.8
 51
312.7949192198
  0
ARC
  5
7B4
100
AcDbEntity
  8
DTM_CRV
100
AcDbCircle
 62
4
  6
CONTINUOUS
 10
201.5045680346
 20
443.6155839198
 40
91.6292185558
100
AcDbArc
 50
344.4643205024
 51
347.8554413782
  0
ARC
  5
7B5
100
AcDbEntity
  8
CRV_XY
100
AcDbCircle
 62
2
  6
PHANTOM
 10
187.0136531409
 20
260.5507726568
 40
87.5
100
AcDbArc
 50
224.8
 51
10.0
  0
ARC
  5
7B6
100
AcDbEntity
  8
CRV_XY
100
AcDbCircle
 62
40
  6
CONTINUOUS
 10
183.2365681351
 20
264.5449280623
 40
87.5
100
AcDbArc
 50
222.0
 51
342.8375428145
  0
ARC
  5
7B7
100
AcDbEntity
  8
CRV_XY
100
AcDbCircle
 62
4
  6
CONTINUOUS
 10
183.2365681351
 20
264.5449280623
 40
87.5
100
AcDbArc
 50
342.8375428145
 51
3.0
  0
ARC
  5
7B8
100
AcDbEntity
  8
5_ALL_CURVE
100
AcDbCircle
 62
4
  6
CONTINUOUS
 10
243.7213092577
 20
349.4174342681
 40
7.5
100
AcDbArc
 50
91.0
 51
111.3706222693
  0
ARC
  5
7B9
100
AcDbEntity
  8
DTM_CRV
100
AcDbCircle
 62
4
  6
CONTINUOUS
 10
249.3182628302
 20
420.5814814581
 40
5.6292185558
100
AcDbArc
 50
195.5356794975
 51
248.5786422927
  0
CIRCLE
  5
7BA
100
AcDbEntity
  8
CRV_XY
100
AcDbCircle
 62
2
  6
CONTINUOUS
 10
216.9029238289
 20
380.4715654785
 40
5.0
  0
CIRCLE
  5
7BB
100
AcDbEntity
  8
CRV_XY
100
AcDbCircle
 62
2
  6
CONTINUOUS
 10
211.7748267844
 20
384.3218496502
 40
5.0
  0
ARC
  5
7BC
100
AcDbEntity
  8
5_ALL_CURVE
100
AcDbCircle
 62
4
  6
CONTINUOUS
 10
235.8403610013
 20
350.0920033524
 40
4.0
100
AcDbArc
 50
111.3706222693
 51
180.0
  0
ARC
  5
7BD
100
AcDbEntity
  8
5_ALL_CURVE
100
AcDbCircle
 62
4
  6
CONTINUOUS
 10
235.8403610013
 20
271.3221212777
 40
4.0
100
AcDbArc
 50
180.0
 51
270.0
  0
CIRCLE
  5
7BE
100
AcDbEntity
  8
5_ALL_CURVE
100
AcDbCircle
 62
4
  6
CONTINUOUS
 10
236.8403610013
 20
289.8221212777
 40
2.25
  0
CIRCLE
  5
7BF
100
AcDbEntity
  8
5_ALL_CURVE
100
AcDbCircle
 62
4
  6
CONTINUOUS
 10
236.8403610013
 20
349.8221212777
 40
2.25
  0
ARC
  5
7C0
100
AcDbEntity
  8
DTM_CRV
100
AcDbCircle
 62
4
  6
CONTINUOUS
 10
-938.9345413134
 20
655.3346093622
 40
1251.6292185558
100
AcDbArc
 50
349.7433125908
 51
351.3590714244
  0
ARC
  5
7C1
100
AcDbEntity
  8
DTM_CRV
100
AcDbCircle
 62
4
  6
CONTINUOUS
 10
45.0853805383
 20
477.2762105183
 40
251.6292185558
100
AcDbArc
 50
347.8554413782
 51
349.7433125908
  0
ARC
  5
7C2
100
AcDbEntity
  8
DTM_CRV
100
AcDbCircle
 62
4
  6
CONTINUOUS
 10
147.3403610013
 20
483.8445332563
 40
151.8792185558
100
AcDbArc
 50
0.0
 51
11.0259096059
  0
ARC
  5
7C3
100
AcDbEntity
  8
DTM_CRV
100
AcDbCircle
 62
4
  6
CONTINUOUS
 10
198.0121651253
 20
482.5567556941
 40
101.6292185558
100
AcDbArc
 50
351.3590714244
 51
354.7780336239
  0
ARC
  5
7C4
100
AcDbEntity
  8
DTM_CRV
100
AcDbCircle
 62
7
  6
CONTINUOUS
 10
266.8403610013
 20
339.8221212777
 40
230.0
100
AcDbArc
 50
315.2
 51
224.8
  0
ARC
  5
7C5
100
AcDbEntity
  8
CRV_XY
100
AcDbCircle
 62
40
  6
CONTINUOUS
 10
266.8403610013
 20
339.8221212777
 40
200.0
100
AcDbArc
 50
315.2
 51
224.8
  0
ARC
  5
7C6
100
AcDbEntity
  8
DTM_CRV
100
AcDbCircle
 62
7
  6
CONTINUOUS
 10
346.6670688616
 20
260.5507726568
 40
117.5
100
AcDbArc
 50
227.2050807802
 51
315.2
  0
CIRCLE
  5
7C7
100
AcDbEntity
  8
CRV_XY
100
AcDbCircle
 62
2
  6
PHANTOM
 10
266.8403610013
 20
339.8221212777
 40
112.5
  0
ARC
  5
7C8
100
AcDbEntity
  8
DTM_CRV
100
AcDbCircle
 62
4
  6
CONTINUOUS
 10
332.1761539679
 20
443.6155839198
 40
91.6292185558
100
AcDbArc
 50
192.1445586218
 51
195.5356794976
  0
ARC
  5
7C9
100
AcDbEntity
  8
CRV_XY
100
AcDbCircle
 62
2
  6
PHANTOM
 10
346.6670688616
 20
260.5507726568
 40
87.5
100
AcDbArc
 50
170.0
 51
315.2
  0
ARC
  5
7CA
100
AcDbEntity
  8
CRV_XY
100
AcDbCircle
 62
4
  6
CONTINUOUS
 10
350.4441538675
 20
264.5449280623
 40
87.5
100
AcDbArc
 50
177.0
 51
197.1624571855
  0
ARC
  5
7CB
100
AcDbEntity
  8
CRV_XY
100
AcDbCircle
 62
40
  6
CONTINUOUS
 10
350.4441538675
 20
264.5449280623
 40
87.5
100
AcDbArc
 50
197.1624571855
 51
318.0
  0
ARC
  5
7CC
100
AcDbEntity
  8
CRV_XY
100
AcDbCircle
 62
2
  6
CONTINUOUS
 10
266.8403610013
 20
339.8221212777
 40
70.7985796737
100
AcDbArc
 50
266.9424770006
 51
273.0575229994
  0
ARC
  5
7CD
100
AcDbEntity
  8
CRV_XY
100
AcDbCircle
 62
40
  6
CONTINUOUS
 10
266.8403610013
 20
339.8221212777
 40
70.7985796737
100
AcDbArc
 50
324.3078221354
 51
215.6921778646
  0
ARC
  5
7CE
100
AcDbEntity
  8
CRV_XY
100
AcDbCircle
 62
2
  6
PHANTOM
 10
266.8403610013
 20
339.8221212777
 40
64.3904103511
100
AcDbArc
 50
264.3458448889
 51
275.6541551111
  0
ARC
  5
7CF
100
AcDbEntity
  8
CRV_XY
100
AcDbCircle
 62
2
  6
CONTINUOUS
 10
266.8403610013
 20
339.8221212777
 40
64.3904103511
100
AcDbArc
 50
275.6541551111
 51
264.3458448889
  0
CIRCLE
  5
7D0
100
AcDbEntity
  8
5_ALL_CURVE
100
AcDbCircle
 62
4
  6
CONTINUOUS
 10
266.8403610013
 20
339.8221212777
 40
26.0
  0
ARC
  5
7D1
100
AcDbEntity
  8
DTM_CRV
100
AcDbCircle
 62
40
  6
CONTINUOUS
 10
266.8403610013
 20
339.8221212777
 40
21.75
100
AcDbArc
 50
180.0
 51
360.0
  0
ARC
  5
7D2
100
AcDbEntity
  8
DTM_CRV
100
AcDbCircle
 62
40
  6
CONTINUOUS
 10
266.8403610013
 20
452.3221212777
 40
21.75
100
AcDbArc
 50
0.0
 51
180.0
  0
CIRCLE
  5
7D3
100
AcDbEntity
  8
DTM_CRV
100
AcDbCircle
 62
40
  6
CONTINUOUS
 10
266.8403610013
 20
452.3221212777
 40
20.0
  0
ARC
  5
7D4
100
AcDbEntity
  8
5_ALL_CURVE
100
AcDbCircle
 62
4
  6
CONTINUOUS
 10
289.9594127449
 20
349.4174342681
 40
7.5
100
AcDbArc
 50
68.6293777307
 51
89.0
  0
ARC
  5
7D5
100
AcDbEntity
  8
DTM_CRV
100
AcDbCircle
 62
4
  6
CONTINUOUS
 10
284.3624591723
 20
420.5814814581
 40
5.6292185558
100
AcDbArc
 50
291.4213577133
 51
344.4643205025
  0
CIRCLE
  5
7D6
100
AcDbEntity
  8
CRV_XY
100
AcDbCircle
 62
2
  6
CONTINUOUS
 10
321.9058952181
 20
384.3218496502
 40
5.0
  0
CIRCLE
  5
7D7
100
AcDbEntity
  8
CRV_XY
100
AcDbCircle
 62
2
  6
CONTINUOUS
 10
316.7777981737
 20
380.4715654785
 40
5.0
  0
ARC
  5
7D8
100
AcDbEntity
  8
5_ALL_CURVE
100
AcDbCircle
 62
4
  6
CONTINUOUS
 10
297.8403610013
 20
271.3221212777
 40
4.0
100
AcDbArc
 50
270.0
 51
360.0
  0
ARC
  5
7D9
100
AcDbEntity
  8
5_ALL_CURVE
100
AcDbCircle
 62
4
  6
CONTINUOUS
 10
297.8403610013
 20
350.0920033524
 40
4.0
100
AcDbArc
 50
0.0
 51
68.6293777307
  0
CIRCLE
  5
7DA
100
AcDbEntity
  8
5_ALL_CURVE
100
AcDbCircle
 62
4
  6
CONTINUOUS
 10
296.8403610013
 20
349.8221212777
 40
2.25
  0
CIRCLE
  5
7DB
100
AcDbEntity
  8
5_ALL_CURVE
100
AcDbCircle
 62
4
  6
CONTINUOUS
 10
296.8403610013
 20
289.8221212777
 40
2.25
  0
ARC
  5
7DC
100
AcDbEntity
  8
5_ALL_CURVE
100
AcDbCircle
 62
4
  6
CONTINUOUS
 10
303.8403610013
 20
298.0900704701
 40
2.0
100
AcDbArc
 50
138.5903865684
 51
180.0
  0
ARC
  5
7DD
100
AcDbEntity
  8
5_ALL_CURVE
100
AcDbCircle
 62
4
  6
CONTINUOUS
 10
300.8403610013
 20
300.7358217812
 40
2.0
100
AcDbArc
 50
318.590369213
 51
360.0
  0
ARC
  5
7DE
100
AcDbEntity
  8
5_ALL_CURVE
100
AcDbCircle
 62
4
  6
CONTINUOUS
 10
300.8403610013
 20
323.9084207742
 40
2.0
100
AcDbArc
 50
0.0
 51
41.4096300436
  0
ARC
  5
7DF
100
AcDbEntity
  8
5_ALL_CURVE
100
AcDbCircle
 62
4
  6
CONTINUOUS
 10
303.8403610013
 20
326.5541720853
 40
2.0
100
AcDbArc
 50
180.0
 51
221.409614175
  0
ARC
  5
7E0
100
AcDbEntity
  8
DTM_CRV
100
AcDbCircle
 62
4
  6
CONTINUOUS
 10
1472.615263316
 20
655.3346093622
 40
1251.6292185558
100
AcDbArc
 50
188.6409285756
 51
190.2566874092
  0
ARC
  5
7E1
100
AcDbEntity
  8
DTM_CRV
100
AcDbCircle
 62
4
  6
CONTINUOUS
 10
488.5953414642
 20
477.2762105183
 40
251.6292185558
100
AcDbArc
 50
190.2566874092
 51
192.1445586218
  0
ARC
  5
7E2
100
AcDbEntity
  8
DTM_CRV
100
AcDbCircle
 62
4
  6
CONTINUOUS
 10
386.3403610013
 20
483.8445332563
 40
151.8792185558
100
AcDbArc
 50
168.9740903941
 51
180.0
  0
ARC
  5
7E3
100
AcDbEntity
  8
DTM_CRV
100
AcDbCircle
 62
4
  6
CONTINUOUS
 10
335.6685568773
 20
482.5567556941
 40
101.6292185558
100
AcDbArc
 50
185.2219663761
 51
188.6409285756
  0
ARC
  5
7E4
100
AcDbEntity
  8
DTM_CRV
100
AcDbCircle
 62
4
  6
CONTINUOUS
 10
266.8403610013
 20
539.8221212777
 40
23.8792185558
100
AcDbArc
 50
11.0259096059
 51
168.9740903941
  0
CIRCLE
  5
7E5
100
AcDbEntity
  8
DTM_CRV
100
AcDbCircle
 62
40
  6
CONTINUOUS
 10
266.8403610013
 20
539.8221212777
 40
4.0
  0
ENDSEC
  0
SECTION
  2
OBJECTS
  0
DICTIONARY
  5
C
100
AcDbDictionary
280
0
281
1
  3
ACAD_GROUP
350
D
  3
ACAD_MLINESTYLE
350
17
  3
ACAD_LAYOUT
350
1A
  3
ACAD_PLOTSETTINGS
350
19
  3
ACAD_PLOTSTYLENAME
350
E
  0
DICTIONARY
  5
D
102
{ACAD_REACTORS
330
C
102
}
100
AcDbDictionary
280
0
281
1
  0
ACDBDICTIONARYWDFLT
  5
E
102
{ACAD_REACTORS
330
C
102
}
100
AcDbDictionary
281
1
  3
Normal
350
F
100
AcDbDictionaryWithDefault
340
F
  0
DICTIONARY
  5
17
102
{ACAD_REACTORS
330
C
102
}
100
AcDbDictionary
280
0
281
1
  3
Standard
350
18
  0
DICTIONARY
  5
19
102
{ACAD_REACTORS
330
C
102
}
100
AcDbDictionary
281
1
  0
DICTIONARY
  5
1A
102
{ACAD_REACTORS
330
C
102
}
100
AcDbDictionary
281
1
  3
Model
350
7E6
  3
Layout1
350
7E7
  0
ACDBPLACEHOLDER
  5
F
102
{ACAD_REACTORS
330
E
102
}
  0
MLINESTYLE
  5
18
102
{ACAD_REACTORS
330
17
102
}
100
AcDbMlineStyle
  2
STANDARD
 70
0
  3

 62
256
 51
90.0
 52
90.0
 71
2
 49
0.5
 62
256
  6
BYLAYER
 49
-0.5
 62
256
  6
BYLAYER
  0
LAYOUT
  5
7E6
102
{ACAD_REACTORS
330
1A
102
}
100
AcDbPlotSettings
  1

  2
none_device
  4
ISO_A1_(594.00_x_841.00_MM)
  6

 40
0.0
 41
0.0
 42
0.0
 43
0.0
 44
841.0
 45
594.0
 46
0.0
 47
0.0
 48
0.0
 49
0.0
140
0.0
141
0.0
142
1.0
143
1.0
 70
1024
 72
1
 73
0
 74
0
  7

 75
0
147
1.0
148
0.0
149
0.0
100
AcDbLayout
  1
Model
 70
0
 71
0
 10
0.0
 20
0.0
 11
841.0
 21
594.0
 12
0.0
 22
0.0
 32
0.0
 14
0.0
 24
0.0
 34
0.0
 15
0.0
 25
0.0
 35
0.0
146
0.0
 13
0.0
 23
0.0
 33
0.0
 16
1.0
 26
0.0
 36
0.0
 17
0.0
 27
1.0
 37
0.0
 76
0
330
20E
345
0
346
0
  0
LAYOUT
  5
7E7
102
{ACAD_REACTORS
330
1A
102
}
100
AcDbPlotSettings
  1

  2
none_device
  4
ISO_A1_(594.00_x_841.00_MM)
  6

 40
0.0
 41
0.0
 42
0.0
 43
0.0
 44
841.0
 45
594.0
 46
0.0
 47
0.0
 48
0.0
 49
0.0
140
0.0
141
0.0
142
1.0
143
1.0
 70
0
 72
1
 73
0
 74
0
  7

 75
0
147
1.0
148
0.0
149
0.0
100
AcDbLayout
  1
Layout1
 70
0
 71
1
 10
0.0
 20
0.0
 11
841.0
 21
594.0
 12
0.0
 22
0.0
 32
0.0
 14
0.0
 24
0.0
 34
0.0
 15
0.0
 25
0.0
 35
0.0
146
0.0
 13
0.0
 23
0.0
 33
0.0
 16
1.0
 26
0.0
 36
0.0
 17
0.0
 27
1.0
 37
0.0
 76
0
330
20F
345
0
346
0
  0
ENDSEC
  0
EOF
